[国家地理] [4K 国家地理] 印度尼西亚风情(2020)[2160P/MKV/520MB]

[复制链接]

2510

主题

2820

帖子

2万

积分

超级版主

Rank: 8Rank: 8

积分
23552
 楼主| 发表于 2021-8-30 11:28:18 | 显示全部楼层 |阅读模式
本帖最后由 叽里呱啦 于 2021-8-29 12:51 编辑

印度尼西亚(520MB)Indoneziya_Indonesia.2020.WEBRip.2160p.mkv_20210829_122923.97.jpg 印度尼西亚(520MB)Indoneziya_Indonesia.2020.WEBRip.2160p.mkv_20210829_122934.08.jpg 印度尼西亚(520MB)Indoneziya_Indonesia.2020.WEBRip.2160p.mkv_20210829_122949.52.jpg 印度尼西亚(520MB)Indoneziya_Indonesia.2020.WEBRip.2160p.mkv_20210829_122957.66.jpg 印度尼西亚(520MB)Indoneziya_Indonesia.2020.WEBRip.2160p.mkv_20210829_123021.27.jpg 印度尼西亚(520MB)Indoneziya_Indonesia.2020.WEBRip.2160p.mkv_20210829_123028.44.jpg

影片信息
片名:印度尼西亚风情
上映年份: 2020
国家/地区:印度尼西亚
持续时间: 00:04 : 50
类型: 物种
导演:你好地平线

关于电影:

       看看我们穿越印度尼西亚的奇妙旅程。

General
Complete name                  : J:\印度尼西亚风情(520MB)Indoneziya_Indonesia.2020.WEBRip.2160p.mkv
Format                         : Matroska
Format version                 : Version 4
File size                      : 521 MiB
Duration                       : 4 min 50 s
Overall bit rate               : 15.0 Mb/s
Encoded date                   : UTC 2021-08-20 11:00:32
Writing application            : mkvmerge v60.0.0 ('Are We Copies?') 64-bit
Writing library                : libebml v1.4.2 + libmatroska v1.6.4 / Lavf58.44.100

Video
ID                             : 1
Format                         : VP9
Codec ID                       : V_VP9
Duration                       : 4 min 49 s
Bit rate                       : 14.9 Mb/s
Width                          : 3 840 pixels
Height                         : 2 160 pixels
Display aspect ratio           : 16:9
Frame rate mode                : Constant
Frame rate                     : 25.000 FPS
Bits/(Pixel*Frame)             : 0.072
Stream size                    : 514 MiB (99%)
Language                       : English
Default                        : Yes
Forced                         : No

Audio
ID                             : 2
Format                         : AAC LC
Format/Info                    : Advanced Audio Codec Low Complexity
Codec ID                       : A_AAC-2
Duration                       : 4 min 50 s
Bit rate                       : 192 kb/s
Channel(s)                     : 2 channels
Channel layout                 : L R
Sampling rate                  : 44.1 kHz
Frame rate                     : 43.066 FPS (1024 SPF)
Compression mode               : Lossy
Stream size                    : 6.66 MiB (1%)
Language                       : English
Default                        : Yes
Forced                         : No

游客,如果您要查看本帖隐藏内容请回复





上一篇:[4K 国家地理] 南极洲边缘城市(2021)[2160P/MKV/550MB
下一篇:[4K 国家地理] 意大利(2020)[2160P/MKV/385MB]
回复

使用道具 举报

54

主题

1512

帖子

4324

积分

4K家园VIP

Rank: 9Rank: 9Rank: 9

积分
4324
发表于 2021-8-30 11:28:23 | 显示全部楼层
1v1飘过
回复 支持 反对

使用道具 举报

0

主题

5838

帖子

1万

积分

4K家园VIP

Rank: 9Rank: 9Rank: 9

积分
13919
发表于 2021-8-30 12:52:50 | 显示全部楼层
印度尼西亞風情4k
回复 支持 反对

使用道具 举报

0

主题

1

帖子

10

积分

新手上路

Rank: 1

积分
10
发表于 2021-8-30 16:01:00 | 显示全部楼层
支持
回复

使用道具 举报

0

主题

1

帖子

10

积分

新手上路

Rank: 1

积分
10
发表于 2021-9-2 09:39:18 | 显示全部楼层
看来是非常美丽的风光,看一看
回复 支持 反对

使用道具 举报

0

主题

5

帖子

22

积分

新手上路

Rank: 1

积分
22
发表于 2021-9-2 10:37:18 | 显示全部楼层
zhichizouyiboi...
回复 支持 反对

使用道具 举报

3

主题

1561

帖子

4279

积分

4K家园VIP

Rank: 9Rank: 9Rank: 9

积分
4279
发表于 2021-9-3 16:37:49 来自手机 | 显示全部楼层
介是神马?!!
回复 支持 反对

使用道具 举报

0

主题

3

帖子

12

积分

新手上路

Rank: 1

积分
12
发表于 2021-9-3 16:48:04 来自手机 | 显示全部楼层
谢谢分享
回复

使用道具 举报

5

主题

1303

帖子

3761

积分

中级会员

Rank: 4

积分
3761
发表于 2021-9-3 20:30:00 | 显示全部楼层
怎么这么大,希望我电视能看啊
回复 支持 反对

使用道具 举报

0

主题

19

帖子

124

积分

新手上路

Rank: 1

积分
124
发表于 2021-9-3 21:16:49 | 显示全部楼层
gggwfegwg
回复

使用道具 举报

您需要登录后才可以回帖 登录 | 立即注册

本版积分规则

精彩图文
Archiver|手机版|TAG|Sitemap|新帖|专题|联系我们:邮箱: 4kjia.com@gmail.com   

4k家园   ©2019