[国家地理] [4K 国家地理] 意大利(2020)[2160P/MKV/385MB]

[复制链接]

2501

主题

2811

帖子

2万

积分

超级版主

Rank: 8Rank: 8

积分
23489
 楼主| 发表于 2021-9-9 13:58:09 | 显示全部楼层 |阅读模式

意大利(385MB)(2020)WEBRip 2160p.mkv_20210829_124346.287.jpg 意大利(385MB)(2020)WEBRip 2160p.mkv_20210829_124354.680.jpg 意大利(385MB)(2020)WEBRip 2160p.mkv_20210829_124408.600.jpg 意大利(385MB)(2020)WEBRip 2160p.mkv_20210829_124427.360.jpg 意大利(385MB)(2020)WEBRip 2160p.mkv_20210829_124441.280.jpg 意大利(385MB)(2020)WEBRip 2160p.mkv_20210829_124448.016.jpg 意大利(385MB)(2020)WEBRip 2160p.mkv_20210829_124454.024.jpg

有关信息
标题:意大利
发行年: 2020
国家/地区:意大利
时长: 00 : 02 : 28
类型: 种类
导演: JanBerounsky

关于电影:

      在意大利发生电晕大流行期间旅行。

General
Complete name                  : J:\国家地理\意大利(385MB)(2020)WEBRip 2160p.mkv
Format                         : Matroska
Format version                 : Version 4
File size                      : 386 MiB
Duration                       : 2 min 28 s
Overall bit rate               : 21.7 Mb/s
Encoded date                   : UTC 2021-03-12 19:36:16
Writing application            : mkvmerge v55.0.0 ('Waiting For Space') 64-bit
Writing library                : libebml v1.4.2 + libmatroska v1.6.4

Video
ID                             : 1
Format                         : AVC
Format/Info                    : Advanced Video Codec
Format profile                 : High@L5.2
Format settings                : CABAC / 5 Ref Frames
Format settings, CABAC         : Yes
Format settings, Reference fra : 5 frames
Codec ID                       : V_MPEG4/ISO/AVC
Duration                       : 2 min 28 s
Bit rate                       : 21.5 Mb/s
Width                          : 3 840 pixels
Height                         : 1 644 pixels
Display aspect ratio           : 2.35:1
Frame rate mode                : Constant
Frame rate                     : 25.000 FPS
Color space                    : YUV
Chroma subsampling             : 4:2:0
Bit depth                      : 8 bits
Scan type                      : Progressive
Bits/(Pixel*Frame)             : 0.136
Stream size                    : 381 MiB (99%)
Writing library                : x264 core 161 r10 4121277
Encoding settings              : cabac=1 / ref=5 / deblock=1:0:0 / analyse=0x3:0x113 / me=hex / subme=8 / psy=1 / psy_rd=1.00:0.00 / mixed_ref=1 / me_range=16 / chroma_me=1 / trellis=2 / 8x8dct=1 / cqm=0 / deadzone=21,11 / fast_pskip=1 / chroma_qp_offset=-2 / threads=48 / lookahead_threads=8 / sliced_threads=0 / nr=0 / decimate=1 / interlaced=0 / bluray_compat=0 / stitchable=1 / constrained_intra=0 / bframes=3 / b_pyramid=2 / b_adapt=2 / b_bias=0 / direct=3 / weightb=1 / open_gop=0 / weightp=2 / keyint=infinite / keyint_min=25 / scenecut=40 / intra_refresh=0 / rc_lookahead=50 / rc=crf / mbtree=1 / crf=20.0 / qcomp=0.60 / qpmin=5 / qpmax=69 / qpstep=4 / vbv_maxrate=24200 / vbv_bufsize=66000 / crf_max=0.0 / nal_hrd=none / filler=0 / ip_ratio=1.40 / aq=1:1.00
Default                        : Yes
Forced                         : No
Color range                    : Limited
Color primaries                : BT.709
Transfer characteristics       : BT.709
Matrix coefficients            : BT.709

Audio
ID                             : 2
Format                         : AAC LC
Format/Info                    : Advanced Audio Codec Low Complexity
Codec ID                       : A_AAC-2
Duration                       : 2 min 28 s
Bit rate                       : 253 kb/s
Channel(s)                     : 2 channels
Channel layout                 : L R
Sampling rate                  : 48.0 kHz
Frame rate                     : 46.875 FPS (1024 SPF)
Compression mode               : Lossy
Stream size                    : 4.49 MiB (1%)
Default                        : Yes
Forced                         : No
游客,如果您要查看本帖隐藏内容请回复





上一篇:[4K 国家地理] 印度尼西亚风情(2020)[2160P/MKV/520MB]
下一篇:[4K 国家地理] 亚速尔群岛和马德拉群岛(2020)[2160P/MKV/1.49GB]
回复

使用道具 举报

0

主题

1281

帖子

3859

积分

4K家园VIP

Rank: 9Rank: 9Rank: 9

积分
3859
发表于 2021-9-9 13:58:16 | 显示全部楼层
有4K版啦,下个看下
回复 支持 反对

使用道具 举报

0

主题

5

帖子

18

积分

新手上路

Rank: 1

积分
18
发表于 2021-9-9 15:14:18 | 显示全部楼层
真的很好~哎呀就是有点短
回复 支持 反对

使用道具 举报

0

主题

1

帖子

13

积分

新手上路

Rank: 1

积分
13
发表于 2021-9-9 16:06:30 | 显示全部楼层
楼主好棒,4k好家园
回复 支持 反对

使用道具 举报

0

主题

3

帖子

15

积分

新手上路

Rank: 1

积分
15
发表于 2021-9-9 18:43:52 | 显示全部楼层
谢谢分享
回复

使用道具 举报

0

主题

1

帖子

9

积分

新手上路

Rank: 1

积分
9
发表于 2021-9-9 19:16:17 来自手机 | 显示全部楼层
好啊,好好看看
回复 支持 反对

使用道具 举报

0

主题

3

帖子

12

积分

新手上路

Rank: 1

积分
12
发表于 2021-9-9 21:16:52 | 显示全部楼层
品质应该非常好
回复 支持 反对

使用道具 举报

1

主题

1304

帖子

3766

积分

4K家园VIP

Rank: 9Rank: 9Rank: 9

积分
3766
发表于 2021-9-11 02:29:29 | 显示全部楼层
前排支持下了哦~
回复 支持 反对

使用道具 举报

0

主题

12

帖子

78

积分

新手上路

Rank: 1

积分
78
发表于 2021-9-11 09:01:04 | 显示全部楼层
dddddddddd
回复 支持 反对

使用道具 举报

1

主题

4

帖子

41

积分

新手上路

Rank: 1

积分
41
发表于 2021-9-11 09:18:10 | 显示全部楼层
谢谢分享
回复

使用道具 举报

您需要登录后才可以回帖 登录 | 立即注册

本版积分规则

精彩图文
Archiver|手机版|TAG|Sitemap|新帖|专题|联系我们:邮箱: 4kjia.com@gmail.com   

4k家园   ©2019