[国家地理] [4K 国家地理] 亚速尔群岛和马德拉群岛(2020)[2160P/MKV/1.49GB]

[复制链接]

2498

主题

2808

帖子

2万

积分

超级版主

Rank: 8Rank: 8

积分
23453
 楼主| 发表于 2021-9-6 12:26:05 | 显示全部楼层 |阅读模式

亚速尔群岛和马德拉群岛(1.49GB)(2020)WEBRip 2160p.torrent.mkv_20210829_125640.jpg 亚速尔群岛和马德拉群岛(1.49GB)(2020)WEBRip 2160p.torrent.mkv_20210829_125709.jpg 亚速尔群岛和马德拉群岛(1.49GB)(2020)WEBRip 2160p.torrent.mkv_20210829_125720.jpg 亚速尔群岛和马德拉群岛(1.49GB)(2020)WEBRip 2160p.torrent.mkv_20210829_125733.jpg 亚速尔群岛和马德拉群岛(1.49GB)(2020)WEBRip 2160p.torrent.mkv_20210829_125745.jpg 亚速尔群岛和马德拉群岛(1.49GB)(2020)WEBRip 2160p.torrent.mkv_20210829_125759.jpg

有关信息
标题:亚速尔群岛和马德拉群岛
发行年份: 2020
国家:葡萄牙
时间: 00:09:34
类型: 物种
导演: Stefan Forster

关于电影:

      亚速尔群岛和马德拉群岛-彩虹和瀑布的岛屿。

General
Complete name                  : J:\国家地理\亚速尔群岛和马德拉群岛(1.49GB)(2020)WEBRip 2160p.torrent.mkv
Format                         : Matroska
Format version                 : Version 4
File size                      : 1.49 GiB
Duration                       : 9 min 34 s
Overall bit rate               : 22.2 Mb/s
Encoded date                   : UTC 2021-03-12 20:57:46
Writing application            : mkvmerge v55.0.0 ('Waiting For Space') 64-bit
Writing library                : libebml v1.4.2 + libmatroska v1.6.4

Video
ID                             : 1
Format                         : AVC
Format/Info                    : Advanced Video Codec
Format profile                 : High@L5.2
Format settings                : CABAC / 5 Ref Frames
Format settings, CABAC         : Yes
Format settings, Reference fra : 5 frames
Codec ID                       : V_MPEG4/ISO/AVC
Duration                       : 9 min 34 s
Bit rate                       : 22.0 Mb/s
Width                          : 3 840 pixels
Height                         : 2 160 pixels
Display aspect ratio           : 16:9
Frame rate mode                : Constant
Frame rate                     : 29.970 (30000/1001) FPS
Color space                    : YUV
Chroma subsampling             : 4:2:0
Bit depth                      : 8 bits
Scan type                      : Progressive
Bits/(Pixel*Frame)             : 0.088
Stream size                    : 1.47 GiB (99%)
Writing library                : x264 core 161 r10 4121277
Encoding settings              : cabac=1 / ref=5 / deblock=1:0:0 / analyse=0x3:0x113 / me=hex / subme=8 / psy=1 / psy_rd=1.00:0.00 / mixed_ref=1 / me_range=16 / chroma_me=1 / trellis=2 / 8x8dct=1 / cqm=0 / deadzone=21,11 / fast_pskip=1 / chroma_qp_offset=-2 / threads=48 / lookahead_threads=8 / sliced_threads=0 / nr=0 / decimate=1 / interlaced=0 / bluray_compat=0 / stitchable=1 / constrained_intra=0 / bframes=3 / b_pyramid=2 / b_adapt=2 / b_bias=0 / direct=3 / weightb=1 / open_gop=0 / weightp=2 / keyint=infinite / keyint_min=29 / scenecut=40 / intra_refresh=0 / rc_lookahead=50 / rc=crf / mbtree=1 / crf=20.0 / qcomp=0.60 / qpmin=5 / qpmax=69 / qpstep=4 / vbv_maxrate=24200 / vbv_bufsize=66000 / crf_max=0.0 / nal_hrd=none / filler=0 / ip_ratio=1.40 / aq=1:1.00
Default                        : Yes
Forced                         : No
Color range                    : Limited
Color primaries                : BT.709
Transfer characteristics       : BT.709
Matrix coefficients            : BT.709

Audio
ID                             : 2
Format                         : AAC LC
Format/Info                    : Advanced Audio Codec Low Complexity
Codec ID                       : A_AAC-2
Duration                       : 9 min 34 s
Bit rate                       : 253 kb/s
Channel(s)                     : 2 channels
Channel layout                 : L R
Sampling rate                  : 48.0 kHz
Frame rate                     : 46.875 FPS (1024 SPF)
Compression mode               : Lossy
Stream size                    : 17.3 MiB (1%)
Default                        : Yes
Forced                         : No
游客,如果您要查看本帖隐藏内容请回复






上一篇:[4K 国家地理] 意大利(2020)[2160P/MKV/385MB]
下一篇:[4K 国家地理] 瑞士峰(2020)[2160P/MKV/1.07GB]
回复

使用道具 举报

2

主题

1104

帖子

3334

积分

4K家园VIP

Rank: 9Rank: 9Rank: 9

积分
3334
发表于 2021-9-6 12:26:12 | 显示全部楼层
锄禾日当午,发帖真辛苦。谁知坛中餐,帖帖皆辛苦!
回复 支持 反对

使用道具 举报

0

主题

2

帖子

153

积分

新手上路

Rank: 1

积分
153
发表于 2021-9-6 13:34:30 | 显示全部楼层
风景宜人,叽里呱啦辛苦。谢谢分享!
回复 支持 反对

使用道具 举报

49

主题

1463

帖子

4219

积分

4K家园VIP

Rank: 9Rank: 9Rank: 9

积分
4219
发表于 2021-9-6 18:52:20 | 显示全部楼层
我是个凑数的。。。
回复 支持 反对

使用道具 举报

4

主题

1648

帖子

4578

积分

4K家园VIP

Rank: 9Rank: 9Rank: 9

积分
4578
发表于 2021-9-7 16:50:22 | 显示全部楼层
OMG!介是啥东东!!!
回复 支持 反对

使用道具 举报

1

主题

1288

帖子

3694

积分

4K家园VIP

Rank: 9Rank: 9Rank: 9

积分
3694
发表于 2021-9-8 07:51:30 | 显示全部楼层
楼主这资源不错,我收藏了
回复 支持 反对

使用道具 举报

0

主题

2

帖子

9

积分

新手上路

Rank: 1

积分
9
发表于 2021-9-8 08:19:49 来自手机 | 显示全部楼层
老板辛苦~多谢多谢
回复 支持 反对

使用道具 举报

40

主题

1473

帖子

4215

积分

4K家园VIP

Rank: 9Rank: 9Rank: 9

积分
4215
发表于 2021-9-9 09:07:41 来自手机 | 显示全部楼层
前排顶起
回复 支持 反对

使用道具 举报

0

主题

3

帖子

15

积分

4K家园VIP

Rank: 9Rank: 9Rank: 9

积分
15
发表于 2021-9-10 00:58:31 | 显示全部楼层
风萧萧易水寒
回复 支持 反对

使用道具 举报

您需要登录后才可以回帖 登录 | 立即注册

本版积分规则

精彩图文
Archiver|手机版|TAG|Sitemap|新帖|专题|联系我们:邮箱: 4kjia.com@gmail.com   

4k家园   ©2019