[国家地理] [4K 国家地理] 延时镜头中的日本(2020)[2160P/MKV/524MB]

[复制链接]

2567

主题

2891

帖子

2万

积分

超级版主

Rank: 8Rank: 8

积分
24049
 楼主| 发表于 2021-9-23 12:39:03 | 显示全部楼层 |阅读模式

日本(524MB)(2020)WEBRip 2160p.mkv_20210829_131132.919.jpg 日本(524MB)(2020)WEBRip 2160p.mkv_20210829_131144.768.jpg 日本(524MB)(2020)WEBRip 2160p.mkv_20210829_131204.391.jpg 日本(524MB)(2020)WEBRip 2160p.mkv_20210829_131211.920.jpg 日本(524MB)(2020)WEBRip 2160p.mkv_20210829_131221.416.jpg 日本(524MB)(2020)WEBRip 2160p.mkv_20210829_131235.520.jpg

有关信息
标题:日本
发行年: 2020
国家/地区:日本
持续时间: 00:04 : 36
类型: 风景
导演:清水大辅

关于电影:

    这是一段延时镜头,描绘了日本的不同地区。

General
Complete name                  : J:\国家地理\延时镜头中的日本(524MB)(2020)WEBRip 2160p.mkv
Format                         : Matroska
Format version                 : Version 4
File size                      : 524 MiB
Duration                       : 4 min 36 s
Overall bit rate               : 15.9 Mb/s
Encoded date                   : UTC 2021-03-12 19:19:28
Writing application            : mkvmerge v55.0.0 ('Waiting For Space') 64-bit
Writing library                : libebml v1.4.2 + libmatroska v1.6.4

Video
ID                             : 1
Format                         : AVC
Format/Info                    : Advanced Video Codec
Format profile                 : High@L5.2
Format settings                : CABAC / 5 Ref Frames
Format settings, CABAC         : Yes
Format settings, Reference fra : 5 frames
Codec ID                       : V_MPEG4/ISO/AVC
Duration                       : 4 min 36 s
Bit rate                       : 15.7 Mb/s
Width                          : 3 840 pixels
Height                         : 2 160 pixels
Display aspect ratio           : 16:9
Frame rate mode                : Constant
Frame rate                     : 29.970 (30000/1001) FPS
Color space                    : YUV
Chroma subsampling             : 4:2:0
Bit depth                      : 8 bits
Scan type                      : Progressive
Bits/(Pixel*Frame)             : 0.063
Stream size                    : 516 MiB (98%)
Writing library                : x264 core 161 r10 4121277
Encoding settings              : cabac=1 / ref=5 / deblock=1:0:0 / analyse=0x3:0x113 / me=hex / subme=8 / psy=1 / psy_rd=1.00:0.00 / mixed_ref=1 / me_range=16 / chroma_me=1 / trellis=2 / 8x8dct=1 / cqm=0 / deadzone=21,11 / fast_pskip=1 / chroma_qp_offset=-2 / threads=48 / lookahead_threads=8 / sliced_threads=0 / nr=0 / decimate=1 / interlaced=0 / bluray_compat=0 / stitchable=1 / constrained_intra=0 / bframes=3 / b_pyramid=2 / b_adapt=2 / b_bias=0 / direct=3 / weightb=1 / open_gop=0 / weightp=2 / keyint=infinite / keyint_min=29 / scenecut=40 / intra_refresh=0 / rc_lookahead=50 / rc=crf / mbtree=1 / crf=20.0 / qcomp=0.60 / qpmin=5 / qpmax=69 / qpstep=4 / vbv_maxrate=24200 / vbv_bufsize=66000 / crf_max=0.0 / nal_hrd=none / filler=0 / ip_ratio=1.40 / aq=1:1.00
Default                        : Yes
Forced                         : No
Color range                    : Limited
Color primaries                : BT.709
Transfer characteristics       : BT.709
Matrix coefficients            : BT.709

Audio
ID                             : 2
Format                         : AAC LC
Format/Info                    : Advanced Audio Codec Low Complexity
Codec ID                       : A_AAC-2
Duration                       : 4 min 36 s
Bit rate                       : 253 kb/s
Channel(s)                     : 2 channels
Channel layout                 : L R
Sampling rate                  : 48.0 kHz
Frame rate                     : 46.875 FPS (1024 SPF)
Compression mode               : Lossy
Stream size                    : 8.35 MiB (2%)
Default                        : Yes
Forced                         : No
游客,如果您要查看本帖隐藏内容请回复






上一篇:[4K 国家地理] 瑞士峰(2020)[2160P/MKV/1.07GB]
下一篇:[4K 国家地理] 寒冷的拉普兰(2021)[2160P/MKV/333MB]
回复

使用道具 举报

0

主题

1293

帖子

3889

积分

4K家园VIP

Rank: 9Rank: 9Rank: 9

积分
3889
发表于 2021-9-23 12:39:52 | 显示全部楼层
还有没有别的资源,多分享些
回复 支持 反对

使用道具 举报

0

主题

6

帖子

24

积分

新手上路

Rank: 1

积分
24
发表于 2021-9-23 15:48:42 | 显示全部楼层
怎么样才能发帖
回复 支持 反对

使用道具 举报

0

主题

1

帖子

6

积分

新手上路

Rank: 1

积分
6
发表于 2021-9-23 20:26:21 | 显示全部楼层
看看
回复

使用道具 举报

0

主题

11

帖子

49

积分

新手上路

Rank: 1

积分
49
发表于 2021-9-23 21:12:17 来自手机 | 显示全部楼层
轻轻巧巧
回复

使用道具 举报

0

主题

1279

帖子

3849

积分

4K家园VIP

Rank: 9Rank: 9Rank: 9

积分
3849
发表于 2021-9-23 23:09:02 来自手机 | 显示全部楼层
路过
回复 支持 反对

使用道具 举报

0

主题

4

帖子

18

积分

新手上路

Rank: 1

积分
18
发表于 2021-9-24 09:48:02 | 显示全部楼层
想重温一下经典传奇
回复 支持 反对

使用道具 举报

53

主题

1508

帖子

4296

积分

4K家园VIP

Rank: 9Rank: 9Rank: 9

积分
4296
发表于 2021-9-24 12:20:16 来自手机 | 显示全部楼层
呵呵。。。
回复 支持 反对

使用道具 举报

0

主题

14

帖子

45

积分

新手上路

Rank: 1

积分
45
发表于 2021-9-25 15:01:37 | 显示全部楼层
下载下载
回复

使用道具 举报

2

主题

1113

帖子

3357

积分

4K家园VIP

Rank: 9Rank: 9Rank: 9

积分
3357
发表于 2021-9-26 06:56:40 来自手机 | 显示全部楼层
撸过
回复 支持 反对

使用道具 举报

您需要登录后才可以回帖 登录 | 立即注册

本版积分规则

精彩图文
Archiver|手机版|TAG|Sitemap|新帖|专题|联系我们:邮箱: 4kjia.com@gmail.com   

4k家园   ©2019