[国家地理] [4K 国家地理] 寒冷的拉普兰(2021)[2160P/MKV/333MB]

[复制链接]

2569

主题

2893

帖子

2万

积分

超级版主

Rank: 8Rank: 8

积分
24070
 楼主| 发表于 2021-9-25 14:37:17 | 显示全部楼层 |阅读模式
本帖最后由 叽里呱啦 于 2021-9-25 14:37 编辑

冷冻拉普兰(333.84MB)(2021)WEBRip 2160p.mkv_20210829_132833.887.jpg 冷冻拉普兰(333.84MB)(2021)WEBRip 2160p.mkv_20210829_132849.199.jpg 冷冻拉普兰(333.84MB)(2021)WEBRip 2160p.mkv_20210829_132857.719.jpg 冷冻拉普兰(333.84MB)(2021)WEBRip 2160p.mkv_20210829_132903.359.jpg 冷冻拉普兰(333.84MB)(2021)WEBRip 2160p.mkv_20210829_132908.279.jpg 冷冻拉普兰(333.84MB)(2021)WEBRip 2160p.mkv_20210829_132920.303.jpg 冷冻拉普兰(333.84MB)(2021)WEBRip 2160p.mkv_20210829_132931.166.jpg

有关信息
标题:冰冻的拉普兰
发行: 2021年
国家/地区:芬兰
时长: 00 : 02 : 24
类型: 种类
导演: Eaglewood Pictures

关于电影:

         冰冻的拉普兰的明信片。

General
Complete name                  : J:\国家地理\寒冷的拉普兰(333.84MB)(2021)WEBRip 2160p.mkv
Format                         : Matroska
Format version                 : Version 4
File size                      : 334 MiB
Duration                       : 2 min 24 s
Overall bit rate               : 19.4 Mb/s
Encoded date                   : UTC 2021-03-16 19:49:36
Writing application            : mkvmerge v55.0.0 ('Waiting For Space') 64-bit
Writing library                : libebml v1.4.2 + libmatroska v1.6.4

Video
ID                             : 1
Format                         : AVC
Format/Info                    : Advanced Video Codec
Format profile                 : High@L5.2
Format settings                : CABAC / 5 Ref Frames
Format settings, CABAC         : Yes
Format settings, Reference fra : 5 frames
Codec ID                       : V_MPEG4/ISO/AVC
Duration                       : 2 min 24 s
Bit rate                       : 19.1 Mb/s
Width                          : 3 840 pixels
Height                         : 1 634 pixels
Display aspect ratio           : 2.35:1
Frame rate mode                : Constant
Frame rate                     : 25.000 FPS
Color space                    : YUV
Chroma subsampling             : 4:2:0
Bit depth                      : 8 bits
Scan type                      : Progressive
Bits/(Pixel*Frame)             : 0.122
Stream size                    : 329 MiB (99%)
Writing library                : x264 core 161 r10 59c0609
Encoding settings              : cabac=1 / ref=5 / deblock=1:0:0 / analyse=0x3:0x113 / me=hex / subme=8 / psy=1 / psy_rd=1.00:0.00 / mixed_ref=1 / me_range=16 / chroma_me=1 / trellis=2 / 8x8dct=1 / cqm=0 / deadzone=21,11 / fast_pskip=1 / chroma_qp_offset=-2 / threads=48 / lookahead_threads=8 / sliced_threads=0 / nr=0 / decimate=1 / interlaced=0 / bluray_compat=0 / stitchable=1 / constrained_intra=0 / bframes=3 / b_pyramid=2 / b_adapt=2 / b_bias=0 / direct=3 / weightb=1 / open_gop=0 / weightp=2 / keyint=infinite / keyint_min=25 / scenecut=40 / intra_refresh=0 / rc_lookahead=50 / rc=crf / mbtree=1 / crf=20.0 / qcomp=0.60 / qpmin=5 / qpmax=69 / qpstep=4 / vbv_maxrate=24200 / vbv_bufsize=66000 / crf_max=0.0 / nal_hrd=none / filler=0 / ip_ratio=1.40 / aq=1:1.00
Default                        : Yes
Forced                         : No
Color range                    : Limited
Color primaries                : BT.709
Transfer characteristics       : BT.709
Matrix coefficients            : BT.709

Audio
ID                             : 2
Format                         : AAC LC
Format/Info                    : Advanced Audio Codec Low Complexity
Codec ID                       : A_AAC-2
Duration                       : 2 min 24 s
Bit rate                       : 253 kb/s
Channel(s)                     : 2 channels
Channel layout                 : L R
Sampling rate                  : 48.0 kHz
Frame rate                     : 46.875 FPS (1024 SPF)
Compression mode               : Lossy
Stream size                    : 4.37 MiB (1%)
Default                        : Yes
Forced                         : No

游客,如果您要查看本帖隐藏内容请回复






上一篇:[4K 国家地理] 延时镜头中的日本(2020)[2160P/MKV/524MB]
下一篇:[4K 国家地理] 岛屿之心希尔塔岛(2020)[2160P/MKV/517MB]
回复

使用道具 举报

2

主题

1118

帖子

3376

积分

4K家园VIP

Rank: 9Rank: 9Rank: 9

积分
3376
发表于 2021-9-25 14:37:23 | 显示全部楼层
正好需要啊
回复 支持 反对

使用道具 举报

0

主题

4

帖子

19

积分

新手上路

Rank: 1

积分
19
发表于 2021-9-25 15:16:16 | 显示全部楼层
6666666666666666
回复 支持 反对

使用道具 举报

0

主题

14

帖子

45

积分

新手上路

Rank: 1

积分
45
发表于 2021-9-25 15:34:58 | 显示全部楼层
下载下载
回复

使用道具 举报

0

主题

16

帖子

64

积分

新手上路

Rank: 1

积分
64
发表于 2021-9-25 16:23:15 | 显示全部楼层
正好需要啊
回复 支持 反对

使用道具 举报

0

主题

2

帖子

9

积分

新手上路

Rank: 1

积分
9
发表于 2021-9-25 22:14:50 来自手机 | 显示全部楼层
正好需要啊
回复 支持 反对

使用道具 举报

0

主题

1

帖子

6

积分

新手上路

Rank: 1

积分
6
发表于 2021-9-26 11:15:01 | 显示全部楼层
非常感谢
回复

使用道具 举报

1

主题

1105

帖子

3335

积分

4K家园VIP

Rank: 9Rank: 9Rank: 9

积分
3335
发表于 2021-9-26 15:09:44 来自手机 | 显示全部楼层
前排顶,很好!
回复 支持 反对

使用道具 举报

62

主题

1451

帖子

4233

积分

4K家园VIP

Rank: 9Rank: 9Rank: 9

积分
4233
发表于 2021-10-5 00:41:04 | 显示全部楼层
撸过
回复 支持 反对

使用道具 举报

0

主题

42

帖子

148

积分

新手上路

Rank: 1

积分
148
发表于 2021-10-6 09:38:46 | 显示全部楼层
寒冷的拉普兰
回复 支持 反对

使用道具 举报

您需要登录后才可以回帖 登录 | 立即注册

本版积分规则

精彩图文
Archiver|手机版|TAG|Sitemap|新帖|专题|联系我们:邮箱: 4kjia.com@gmail.com   

4k家园   ©2019