[4K记录视频] 跑车(2021)[2160P/MKV/269MB]

[复制链接]

2607

主题

2941

帖子

2万

积分

超级版主

Rank: 8Rank: 8

积分
24482
 楼主| 发表于 2021-10-30 16:12:29 | 显示全部楼层 |阅读模式
本帖最后由 叽里呱啦 于 2021-10-30 16:12 编辑

哈特奈特(269MB)(2020)WEBRip 2160p.mkv_20210829_133541.432.jpg 哈特奈特(269MB)(2020)WEBRip 2160p.mkv_20210829_133558.167.jpg 哈特奈特(269MB)(2020)WEBRip 2160p.mkv_20210829_133608.023.jpg 哈特奈特(269MB)(2020)WEBRip 2160p.mkv_20210829_133617.055.jpg 哈特奈特(269MB)(2020)WEBRip 2160p.mkv_20210829_133640.527.jpg 哈特奈特(269MB)(2020)WEBRip 2160p.mkv_20210829_133712.967.jpg

General
Complete name                  : J:\Hartnett(269MB)(2020)WEBRip 2160p.mkv
Format                         : Matroska
Format version                 : Version 4
File size                      : 269 MiB
Duration                       : 3 min 41 s
Overall bit rate               : 10.2 Mb/s
Encoded date                   : UTC 2021-03-23 19:38:01
Writing application            : mkvmerge v55.0.0 ('Waiting For Space') 64-bit
Writing library                : libebml v1.4.2 + libmatroska v1.6.4 / Lavf58.29.100

Video
ID                             : 1
Format                         : VP9
Codec ID                       : V_VP9
Duration                       : 3 min 41 s
Bit rate                       : 10.1 Mb/s
Width                          : 3 840 pixels
Height                         : 1 574 pixels
Display aspect ratio           : 2.40:1
Frame rate mode                : Constant
Frame rate                     : 30.000 FPS
Color space                    : YUV
Bits/(Pixel*Frame)             : 0.056
Stream size                    : 266 MiB (99%)
Default                        : Yes
Forced                         : No
Color range                    : Limited
Color primaries                : BT.709
Transfer characteristics       : BT.709
Matrix coefficients            : BT.709

Audio
ID                             : 2
Format                         : Opus
Codec ID                       : A_OPUS
Duration                       : 3 min 41 s
Bit rate                       : 132 kb/s
Channel(s)                     : 2 channels
Channel layout                 : L R
Sampling rate                  : 48.0 kHz
Frame rate                     : 50.002 FPS (960 SPF)
Bit depth                      : 32 bits
Compression mode               : Lossy
Stream size                    : 3.47 MiB (1%)
Default                        : Yes
Forced                         : No

****此区域为收费内容****    需支付 15 金币后可查看立即购买





上一篇:[4K 国家地理] 寒冷的拉普兰(2021)[2160P/MKV/333MB]
下一篇:[4K 国家地理] 岛屿之心希尔塔岛(2020)[2160P/MKV/517MB]
回复

使用道具 举报

0

主题

1303

帖子

3919

积分

4K家园VIP

Rank: 9Rank: 9Rank: 9

积分
3919
发表于 2021-10-30 16:12:34 | 显示全部楼层
分享的不错,希望楼主继续分享
回复 支持 反对

使用道具 举报

0

主题

6576

帖子

1万

积分

4K家园VIP

Rank: 9Rank: 9Rank: 9

积分
15360
发表于 2021-10-30 16:50:36 | 显示全部楼层
太好啦&萬分感謝版主的無私發佈分享%
回复 支持 反对

使用道具 举报

3

主题

1302

帖子

3926

积分

4K家园VIP

Rank: 9Rank: 9Rank: 9

积分
3926
发表于 2021-10-30 18:00:31 | 显示全部楼层
发发呆,回回帖,工作结束~
回复 支持 反对

使用道具 举报

54

主题

1529

帖子

4375

积分

4K家园VIP

Rank: 9Rank: 9Rank: 9

积分
4375
发表于 2021-11-1 02:21:14 来自手机 | 显示全部楼层
支持楼主,用户楼主,楼主英明呀!!!
回复 支持 反对

使用道具 举报

50

主题

1431

帖子

4195

积分

4K家园VIP

Rank: 9Rank: 9Rank: 9

积分
4195
发表于 2021-11-1 03:41:40 | 显示全部楼层
没人回帖。。。我来个吧
回复 支持 反对

使用道具 举报

55

主题

1483

帖子

4281

积分

4K家园VIP

Rank: 9Rank: 9Rank: 9

积分
4281
发表于 2021-11-1 08:53:19 | 显示全部楼层
楼猪辛苦了,支持一下分享好资源
回复 支持 反对

使用道具 举报

0

主题

1307

帖子

4105

积分

中级会员

Rank: 4

积分
4105
发表于 2021-11-2 14:14:01 | 显示全部楼层
谢楼主分享资源
回复 支持 反对

使用道具 举报

您需要登录后才可以回帖 登录 | 立即注册

本版积分规则

精彩图文
Archiver|手机版|TAG|Sitemap|新帖|专题|联系我们:邮箱: 4kjia.com@gmail.com   

4k家园   ©2019