[国家地理] [4K 国家地理] 岛屿之心希尔塔岛(2020)[2160P/MKV/517MB]

[复制链接]

2497

主题

2804

帖子

2万

积分

超级版主

Rank: 8Rank: 8

积分
23430
 楼主| 发表于 6 天前 | 显示全部楼层 |阅读模式

岛屿之心希尔塔岛(517MB)(2020)WEBRip 2160p.mkv_20210829_134940.790.jpg 岛屿之心希尔塔岛(517MB)(2020)WEBRip 2160p.mkv_20210829_134947.286.jpg 岛屿之心希尔塔岛(517MB)(2020)WEBRip 2160p.mkv_20210829_134953.919.jpg 岛屿之心希尔塔岛(517MB)(2020)WEBRip 2160p.mkv_20210829_135000.094.jpg 岛屿之心希尔塔岛(517MB)(2020)WEBRip 2160p.mkv_20210829_135007.630.jpg 岛屿之心希尔塔岛(517MB)(2020)WEBRip 2160p.mkv_20210829_135023.774.jpg

有关信息
标题:岛屿之心
发行年: 2020
国家/地区:冰岛
持续时间: 00:04 : 29
类型: 种类
导演: Olafur Mar Bjornsson

关于电影:

       在冰岛,正在讨论在高地中部建立国家公园的计划。我相信,我们可以在保护未受破坏的自然与旅行自由之间找到一个良好的平衡。

General
Complete name                  : J:\国家地理\岛屿之心希尔塔岛(517MB)(2020)WEBRip 2160p.mkv
Format                         : Matroska
Format version                 : Version 4
File size                      : 518 MiB
Duration                       : 4 min 29 s
Overall bit rate               : 16.1 Mb/s
Encoded date                   : UTC 2021-03-12 21:09:54
Writing application            : mkvmerge v55.0.0 ('Waiting For Space') 64-bit
Writing library                : libebml v1.4.2 + libmatroska v1.6.4

Video
ID                             : 1
Format                         : AVC
Format/Info                    : Advanced Video Codec
Format profile                 : High@L5.2
Format settings                : CABAC / 5 Ref Frames
Format settings, CABAC         : Yes
Format settings, Reference fra : 5 frames
Codec ID                       : V_MPEG4/ISO/AVC
Duration                       : 4 min 29 s
Bit rate                       : 15.9 Mb/s
Width                          : 3 840 pixels
Height                         : 1 620 pixels
Display aspect ratio           : 2.40:1
Frame rate mode                : Constant
Frame rate                     : 25.000 FPS
Color space                    : YUV
Chroma subsampling             : 4:2:0
Bit depth                      : 8 bits
Scan type                      : Progressive
Bits/(Pixel*Frame)             : 0.102
Stream size                    : 510 MiB (98%)
Writing library                : x264 core 161 r10 4121277
Encoding settings              : cabac=1 / ref=5 / deblock=1:0:0 / analyse=0x3:0x113 / me=hex / subme=8 / psy=1 / psy_rd=1.00:0.00 / mixed_ref=1 / me_range=16 / chroma_me=1 / trellis=2 / 8x8dct=1 / cqm=0 / deadzone=21,11 / fast_pskip=1 / chroma_qp_offset=-2 / threads=48 / lookahead_threads=8 / sliced_threads=0 / nr=0 / decimate=1 / interlaced=0 / bluray_compat=0 / stitchable=1 / constrained_intra=0 / bframes=3 / b_pyramid=2 / b_adapt=2 / b_bias=0 / direct=3 / weightb=1 / open_gop=0 / weightp=2 / keyint=infinite / keyint_min=25 / scenecut=40 / intra_refresh=0 / rc_lookahead=50 / rc=crf / mbtree=1 / crf=20.0 / qcomp=0.60 / qpmin=5 / qpmax=69 / qpstep=4 / vbv_maxrate=24200 / vbv_bufsize=66000 / crf_max=0.0 / nal_hrd=none / filler=0 / ip_ratio=1.40 / aq=1:1.00
Default                        : Yes
Forced                         : No
Color range                    : Limited
Color primaries                : BT.709
Transfer characteristics       : BT.709
Matrix coefficients            : BT.709

Audio
ID                             : 2
Format                         : AAC LC
Format/Info                    : Advanced Audio Codec Low Complexity
Codec ID                       : A_AAC-2
Duration                       : 4 min 29 s
Bit rate                       : 253 kb/s
Channel(s)                     : 2 channels
Channel layout                 : L R
Sampling rate                  : 48.0 kHz
Frame rate                     : 46.875 FPS (1024 SPF)
Compression mode               : Lossy
Stream size                    : 8.15 MiB (2%)
Default                        : Yes
Forced                         : No
游客,如果您要查看本帖隐藏内容请回复




上一篇:[4K 国家地理] 瑞士峰(2020)[2160P/MKV/1.07GB]
下一篇:[4K 国家地理] 巴伐利亚风光(2020)[2160P/MKV/628MB]
回复

使用道具 举报

1

主题

1665

帖子

4603

积分

4K家园VIP

Rank: 9Rank: 9Rank: 9

积分
4603
发表于 6 天前 | 显示全部楼层
你们要是有4K资源记得分享,别小气
回复 支持 反对

使用道具 举报

0

主题

2

帖子

13

积分

新手上路

Rank: 1

积分
13
发表于 6 天前 | 显示全部楼层
谢谢分享。。。
回复

使用道具 举报

0

主题

10

帖子

27

积分

新手上路

Rank: 1

积分
27
发表于 6 天前 | 显示全部楼层
资源不错,支持
回复 支持 反对

使用道具 举报

0

主题

4

帖子

21

积分

新手上路

Rank: 1

积分
21
发表于 6 天前 来自手机 | 显示全部楼层
可以下载吗
回复 支持 反对

使用道具 举报

52

主题

1466

帖子

4236

积分

4K家园VIP

Rank: 9Rank: 9Rank: 9

积分
4236
发表于 5 天前 | 显示全部楼层
垃圾
回复 支持 反对

使用道具 举报

0

主题

2

帖子

13

积分

新手上路

Rank: 1

积分
13
发表于 5 天前 | 显示全部楼层
NJHUI 共赴荣光
回复 支持 反对

使用道具 举报

0

主题

1651

帖子

4465

积分

4K家园VIP

Rank: 9Rank: 9Rank: 9

积分
4465
发表于 5 天前 | 显示全部楼层
有空一起交流一下
回复 支持 反对

使用道具 举报

4

主题

1648

帖子

4578

积分

4K家园VIP

Rank: 9Rank: 9Rank: 9

积分
4578
发表于 4 天前 | 显示全部楼层
顶顶更健康
回复 支持 反对

使用道具 举报

1

主题

1289

帖子

3883

积分

4K家园VIP

Rank: 9Rank: 9Rank: 9

积分
3883
发表于 4 天前 | 显示全部楼层
为了三千积分!
回复 支持 反对

使用道具 举报

您需要登录后才可以回帖 登录 | 立即注册

本版积分规则

精彩图文
Archiver|手机版|TAG|Sitemap|新帖|专题|联系我们:邮箱: 4kjia.com@gmail.com   

4k家园   ©2019