[国家地理] [4K 国家地理] 巴伐利亚风光(2020)[2160P/MKV/628MB]

[复制链接]

2567

主题

2891

帖子

2万

积分

超级版主

Rank: 8Rank: 8

积分
24049
 楼主| 发表于 2021-9-15 21:34:13 | 显示全部楼层 |阅读模式

巴伐利亚风光(628.38MB)(2021)WEBRip 2160p.mkv_20210829_135523.606.jpg 巴伐利亚风光(628.38MB)(2021)WEBRip 2160p.mkv_20210829_135530.502.jpg 巴伐利亚风光(628.38MB)(2021)WEBRip 2160p.mkv_20210829_135536.574.jpg 巴伐利亚风光(628.38MB)(2021)WEBRip 2160p.mkv_20210829_135543.094.jpg 巴伐利亚风光(628.38MB)(2021)WEBRip 2160p.mkv_20210829_135548.206.jpg 巴伐利亚风光(628.38MB)(2021)WEBRip 2160p.mkv_20210829_135558.326.jpg

有关信息
标题: Bavarian Landscapes
发行年份: 2021年
国家/地区: Bavaria
时长:00:05:00
类型: 种类
导演: Amir Kulaglic

关于电影:

       在这个令人惊叹的视频中,将自己沉浸在另一个世界中,并发现巴伐利亚独特的文化景观。在这里,您可以看到各种景观,从令人惊叹的山地景观和春季和夏季的葱郁绿色草地到冬季令人惊叹的未受破坏的自然美景,例如湖泊,瀑布和山峰。巴伐利亚人尽其所能照顾自己的宝贵自然,从而保持了主导巴伐利亚的田园诗般的田园风光。


General
Complete name                  : J:\国家地理\巴伐利亚风光(628.38MB)(2021)WEBRip 2160p.mkv
Format                         : Matroska
Format version                 : Version 4
File size                      : 628 MiB
Duration                       : 5 min 0 s
Overall bit rate               : 17.6 Mb/s
Encoded date                   : UTC 2021-03-16 21:17:22
Writing application            : mkvmerge v55.0.0 ('Waiting For Space') 64-bit
Writing library                : libebml v1.4.2 + libmatroska v1.6.4

Video
ID                             : 1
Format                         : AVC
Format/Info                    : Advanced Video Codec
Format profile                 : High@L5.2
Format settings                : CABAC / 5 Ref Frames
Format settings, CABAC         : Yes
Format settings, Reference fra : 5 frames
Codec ID                       : V_MPEG4/ISO/AVC
Duration                       : 5 min 0 s
Bit rate                       : 17.3 Mb/s
Width                          : 3 840 pixels
Height                         : 2 160 pixels
Display aspect ratio           : 16:9
Frame rate mode                : Constant
Frame rate                     : 25.000 FPS
Color space                    : YUV
Chroma subsampling             : 4:2:0
Bit depth                      : 8 bits
Scan type                      : Progressive
Bits/(Pixel*Frame)             : 0.083
Stream size                    : 619 MiB (99%)
Writing library                : x264 core 161 r10 544c61f
Encoding settings              : cabac=1 / ref=5 / deblock=1:0:0 / analyse=0x3:0x113 / me=hex / subme=8 / psy=1 / psy_rd=1.00:0.00 / mixed_ref=1 / me_range=16 / chroma_me=1 / trellis=2 / 8x8dct=1 / cqm=0 / deadzone=21,11 / fast_pskip=1 / chroma_qp_offset=-2 / threads=48 / lookahead_threads=8 / sliced_threads=0 / nr=0 / decimate=1 / interlaced=0 / bluray_compat=0 / stitchable=1 / constrained_intra=0 / bframes=3 / b_pyramid=2 / b_adapt=2 / b_bias=0 / direct=3 / weightb=1 / open_gop=0 / weightp=2 / keyint=infinite / keyint_min=25 / scenecut=40 / intra_refresh=0 / rc_lookahead=50 / rc=crf / mbtree=1 / crf=20.0 / qcomp=0.60 / qpmin=5 / qpmax=69 / qpstep=4 / vbv_maxrate=24200 / vbv_bufsize=66000 / crf_max=0.0 / nal_hrd=none / filler=0 / ip_ratio=1.40 / aq=1:1.00
Default                        : Yes
Forced                         : No
Color range                    : Limited
Color primaries                : BT.709
Transfer characteristics       : BT.709
Matrix coefficients            : BT.709

Audio
ID                             : 2
Format                         : AAC LC
Format/Info                    : Advanced Audio Codec Low Complexity
Codec ID                       : A_AAC-2
Duration                       : 5 min 0 s
Bit rate                       : 253 kb/s
Channel(s)                     : 2 channels
Channel layout                 : L R
Sampling rate                  : 48.0 kHz
Frame rate                     : 46.875 FPS (1024 SPF)
Compression mode               : Lossy
Stream size                    : 9.06 MiB (1%)
Default                        : Yes
Forced                         : No
****此区域为收费内容****    需支付 15 金币后可查看立即购买





上一篇:[4K 国家地理] 岛屿之心希尔塔岛(2020)[2160P/MKV/517MB]
下一篇:[4K 国家地理] 阿尔卑斯山的美丽景色(2019)[2160P/MKV/589MB]
回复

使用道具 举报

0

主题

1363

帖子

3909

积分

4K家园VIP

Rank: 9Rank: 9Rank: 9

积分
3909
发表于 2021-9-15 21:34:18 | 显示全部楼层
秀起来~
回复 支持 反对

使用道具 举报

1

主题

1328

帖子

4002

积分

4K家园VIP

Rank: 9Rank: 9Rank: 9

积分
4002
发表于 2021-9-18 03:13:25 | 显示全部楼层
站位支持
回复 支持 反对

使用道具 举报

1

主题

1254

帖子

3784

积分

4K家园VIP

Rank: 9Rank: 9Rank: 9

积分
3784
发表于 2021-9-23 13:16:43 | 显示全部楼层
顶起出售广告位
回复 支持 反对

使用道具 举报

2

主题

1298

帖子

3728

积分

4K家园VIP

Rank: 9Rank: 9Rank: 9

积分
3728
发表于 2021-9-23 20:03:33 | 显示全部楼层
楼猪V5啊
回复 支持 反对

使用道具 举报

3

主题

1335

帖子

3835

积分

4K家园VIP

Rank: 9Rank: 9Rank: 9

积分
3835
发表于 2021-9-24 22:05:47 | 显示全部楼层
佩服佩服!
回复 支持 反对

使用道具 举报

0

主题

5

帖子

18

积分

新手上路

Rank: 1

积分
18
发表于 2021-9-25 14:41:55 | 显示全部楼层
感谢分享!!!!!
回复

使用道具 举报

您需要登录后才可以回帖 登录 | 立即注册

本版积分规则

精彩图文
Archiver|手机版|TAG|Sitemap|新帖|专题|联系我们:邮箱: 4kjia.com@gmail.com   

4k家园   ©2019