[国家地理] [4K 国家地理] 意大利-前往托斯卡纳(2020)[2160P/MKV/215MB]

[复制链接]

2497

主题

2804

帖子

2万

积分

超级版主

Rank: 8Rank: 8

积分
23430
 楼主| 发表于 2021-8-31 21:06:08 | 显示全部楼层 |阅读模式

意大利 (215MB)Italiya_Italy.2020.WEBRip.2160p.mkv_20210829_141151.567.jpg 意大利 (215MB)Italiya_Italy.2020.WEBRip.2160p.mkv_20210829_141208.126.jpg 意大利 (215MB)Italiya_Italy.2020.WEBRip.2160p.mkv_20210829_141219.341.jpg 意大利 (215MB)Italiya_Italy.2020.WEBRip.2160p.mkv_20210829_141228.485.jpg 意大利 (215MB)Italiya_Italy.2020.WEBRip.2160p.mkv_20210829_141240.726.jpg 意大利 (215MB)Italiya_Italy.2020.WEBRip.2160p.mkv_20210829_141311.805.jpg

影片信息
片名:意大利
上映年份: 2020
国家:意大利
时长: 00 : 02 : 22
类型: 物种
导演:你好地平线

影片简介:

       我们真的很幸运能在这个疯狂的 2020 年前往托斯卡纳,第一次了解这些令人惊叹的城市。

General
Complete name                  : J:\意大利-前往托斯卡纳 (215MB)Italiya_Italy.2020.WEBRip.2160p.mkv
Format                         : Matroska
Format version                 : Version 4
File size                      : 216 MiB
Duration                       : 2 min 22 s
Overall bit rate               : 12.7 Mb/s
Encoded date                   : UTC 2021-08-20 09:39:10
Writing application            : mkvmerge v60.0.0 ('Are We Copies?') 64-bit
Writing library                : libebml v1.4.2 + libmatroska v1.6.4 / Lavf58.44.100

Video
ID                             : 1
Format                         : VP9
Codec ID                       : V_VP9
Duration                       : 2 min 22 s
Bit rate                       : 12.5 Mb/s
Width                          : 3 840 pixels
Height                         : 2 160 pixels
Display aspect ratio           : 16:9
Frame rate mode                : Constant
Frame rate                     : 23.976 FPS
Bits/(Pixel*Frame)             : 0.063
Stream size                    : 212 MiB (98%)
Language                       : English
Default                        : Yes
Forced                         : No

Audio
ID                             : 2
Format                         : AAC LC
Format/Info                    : Advanced Audio Codec Low Complexity
Codec ID                       : A_AAC-2
Duration                       : 2 min 22 s
Bit rate                       : 192 kb/s
Channel(s)                     : 2 channels
Channel layout                 : L R
Sampling rate                  : 44.1 kHz
Frame rate                     : 43.066 FPS (1024 SPF)
Compression mode               : Lossy
Stream size                    : 3.25 MiB (2%)
Language                       : English
Default                        : Yes
Forced                         : No
****此区域为收费内容****    需支付 15 金币后可查看立即购买





上一篇:[4K 国家地理] 巴伐利亚风光(2020)[2160P/MKV/628MB]
回复

使用道具 举报

0

主题

1588

帖子

4394

积分

4K家园VIP

Rank: 9Rank: 9Rank: 9

积分
4394
发表于 2021-8-31 21:06:13 | 显示全部楼层
沙发???
回复 支持 反对

使用道具 举报

0

主题

5837

帖子

1万

积分

4K家园VIP

Rank: 9Rank: 9Rank: 9

积分
13895
发表于 2021-8-31 21:11:00 | 显示全部楼层
意大利-前往托斯卡納4k
回复 支持 反对

使用道具 举报

2

主题

1280

帖子

3694

积分

4K家园VIP

Rank: 9Rank: 9Rank: 9

积分
3694
发表于 2021-9-2 04:03:27 | 显示全部楼层
4K家园资源最近貌似越来越多了
回复 支持 反对

使用道具 举报

55

主题

1399

帖子

4073

积分

4K家园VIP

Rank: 9Rank: 9Rank: 9

积分
4073
发表于 2021-9-3 02:37:44 | 显示全部楼层
4K家园不错,希望这种资源越多越好
回复 支持 反对

使用道具 举报

0

主题

4

帖子

25

积分

新手上路

Rank: 1

积分
25
发表于 2021-9-3 19:07:09 | 显示全部楼层
这个好,色彩不错
回复 支持 反对

使用道具 举报

0

主题

1652

帖子

4558

积分

4K家园VIP

Rank: 9Rank: 9Rank: 9

积分
4558
发表于 2021-9-5 05:18:45 来自手机 | 显示全部楼层
我也是坐沙发的
回复 支持 反对

使用道具 举报

1

主题

1091

帖子

3293

积分

4K家园VIP

Rank: 9Rank: 9Rank: 9

积分
3293
发表于 2021-9-6 03:10:26 | 显示全部楼层
正需要
回复 支持 反对

使用道具 举报

您需要登录后才可以回帖 登录 | 立即注册

本版积分规则

精彩图文
Archiver|手机版|TAG|Sitemap|新帖|专题|联系我们:邮箱: 4kjia.com@gmail.com   

4k家园   ©2019