[4K UHD 蓝光原盘] 2018 纪录片《在赤道上生活的各种动物》 4K蓝光REMUX版本下载

[复制链接]

2501

主题

2811

帖子

2万

积分

超级版主

Rank: 8Rank: 8

积分
23489
 楼主| 发表于 2021-9-12 14:47:13 | 显示全部楼层 |阅读模式
本帖最后由 叽里呱啦 于 2021-9-13 10:59 编辑

Our.Nature.(2018).2160p.BluRay-Remux.Rus.Eng-BLUEBIRD.mkv_20210901_141835.772.jpg Our.Nature.(2018).2160p.BluRay-Remux.Rus.Eng-BLUEBIRD.mkv_20210901_141849.071.jpg Our.Nature.(2018).2160p.BluRay-Remux.Rus.Eng-BLUEBIRD.mkv_20210901_141858.183.jpg Our.Nature.(2018).2160p.BluRay-Remux.Rus.Eng-BLUEBIRD.mkv_20210901_141946.727.jpg Our.Nature.(2018).2160p.BluRay-Remux.Rus.Eng-BLUEBIRD.mkv_20210901_141956.863.jpg Our.Nature.(2018).2160p.BluRay-Remux.Rus.Eng-BLUEBIRD.mkv_20210901_142007.254.jpg Our.Nature.(2018).2160p.BluRay-Remux.Rus.Eng-BLUEBIRD.mkv_20210901_142114.206.jpg Our.Nature.(2018).2160p.BluRay-Remux.Rus.Eng-BLUEBIRD.mkv_20210901_142135.526.jpg

在赤道上的生活物种 / 我们的本性
发行年份:2018 年
国家:德国
类型:纪录片、植物群、动物群
时间:00:48:55
导演:  Johannes Guttenkunst, Ekrem Engizek / Johannes Guttenkunst, Ekrem Engizek


简介:

       地球是超过一百万种已知动物的家园,每种动物都在自然界中发挥着作用。一部关于赤道居民多样性的电影:大象、海豹、鹦鹉和其他让我们的世界更加美丽的神奇而美丽的生物。

General
Complete name                  : E:\4K@电影 4K@MV\Our.Nature.(2018).2160p.BluRay-Remux.Rus.Eng-BLUEBIRD.mkv
Format                         : Matroska
Format version                 : Version 4
File size                      : 24.2 GiB
Duration                       : 48 min 56 s
Overall bit rate mode          : Variable
Overall bit rate               : 70.7 Mb/s
Encoded date                   : UTC 2021-08-06 11:47:48
Writing application            : mkvmerge v56.1.0 ('My Friend') 64-bit
Writing library                : libebml v1.4.2 + libmatroska v1.6.4

Video
ID                             : 1
Format                         : HEVC
Format/Info                    : High Efficiency Video Coding
Format profile                 : Main 10@L5.1@High
Codec ID                       : V_MPEGH/ISO/HEVC
Duration                       : 48 min 55 s
Bit rate                       : 68.5 Mb/s
Width                          : 3 840 pixels
Height                         : 2 160 pixels
Display aspect ratio           : 16:9
Frame rate mode                : Constant
Frame rate                     : 23.976 (24000/1001) FPS
Color space                    : YUV
Chroma subsampling             : 4:2:0
Bit depth                      : 10 bits
Bits/(Pixel*Frame)             : 0.345
Stream size                    : 23.4 GiB (97%)
Title                          : HEVC (10 bit) / 68.5 Mbps / 2160p / 23.976 fps / 16:9 / High Profile 5.1
Writing library                : x265 2.1+36-d216cb9b3b47:[Windows][GCC 5.3.1][64 bit] 10bit
Encoding settings              : wpp / ctu=64 / min-cu-size=8 / max-tu-size=32 / tu-intra-depth=1 / tu-inter-depth=1 / me=1 / subme=2 / merange=57 / no-rect / no-amp / max-merge=2 / temporal-mvp / no-early-skip / rskip / rdpenalty=0 / no-tskip / no-tskip-fast / strong-intra-smoothing / no-lossless / no-cu-lossless / no-constrained-intra / no-fast-intra / no-open-gop / no-temporal-layers / interlace=0 / keyint=7 / min-keyint=1 / scenecut=40 / bias-for-scenecut=0.05 / rc-lookahead=20 / lookahead-slices=8 / bframes=4 / bframe-bias=0 / b-adapt=2 / ref=3 / limit-refs=3 / no-limit-modes / weightp / no-weightb / aq-mode=1 / qg-size=32 / aq-strength=1.00 / cbqpoffs=0 / crqpoffs=0 / rd=1 / psy-rd=0.00 / rdoq-level=0 / psy-rdoq=0.00 / log2-max-poc-lsb=8 / limit-tu=0 / no-rd-refine / signhide / deblock=0:0 / sao / no-sao-non-deblock / no-b-pyramid / cutree / no-intra-refresh / rc=abr / bitrate=80000 / qcomp=0.60 / qpmin=0 / qpmax=69 / qpstep=4 / vbv-maxrate=90000 / vbv-bufsize=90000 / ipratio=1.40 / pbratio=1.30
Language                       : English
Default                        : Yes
Forced                         : No
Color range                    : Limited
Color primaries                : BT.709
Transfer characteristics       : BT.709
Matrix coefficients            : BT.709

Audio #1
ID                             : 2
Format                         : AC-3
Format/Info                    : Audio Coding 3
Commercial name                : Dolby Digital
Codec ID                       : A_AC3
Duration                       : 48 min 56 s
Bit rate mode                  : Constant
Bit rate                       : 160 kb/s
Channel(s)                     : 2 channels
Channel layout                 : L R
Sampling rate                  : 48.0 kHz
Frame rate                     : 31.250 FPS (1536 SPF)
Compression mode               : Lossy
Stream size                    : 56.0 MiB (0%)
Title                          : rus / AC3 / 2.0 / 48 kHz / 160 kbps / 16-bit
Language                       : Russian
Service kind                   : Complete Main
Default                        : Yes
Forced                         : Yes

Audio #2
ID                             : 3
Format                         : DTS XLL
Format/Info                    : Digital Theater Systems
Commercial name                : DTS-HD Master Audio
Codec ID                       : A_DTS
Duration                       : 48 min 56 s
Bit rate mode                  : Variable
Bit rate                       : 2 042 kb/s
Channel(s)                     : 2 channels
Channel layout                 : L R
Sampling rate                  : 48.0 kHz
Frame rate                     : 93.750 FPS (512 SPF)
Bit depth                      : 24 bits
Compression mode               : Lossless
Stream size                    : 715 MiB (3%)
Title                          : eng / DTS-MA / 2.0 / 48 kHz / 2 042 kbps / 24-bit
Language                       : English
Default                        : No
Forced                         : No

Menu
00:00:00.000                   : :Chapter 1
00:02:33.236                   : :Chapter 2
00:10:11.443                   : :Chapter 3
00:16:53.262                   : :Chapter 4
00:25:06.755                   : :Chapter 5
00:39:07.136                   : :Chapter 6
00:45:31.979                   : :Chapter 7

下载链接:
****此区域为收费内容****    需支付 30 金币后可查看立即购买





上一篇:岛码头 / 岛码头 (1973) 4K蓝光[原盘+REMUX]版本下载
下一篇:真人快打传奇:王国之战 (2021) 4K蓝光[原盘+REMUX]版本下载
回复

使用道具 举报

0

主题

1277

帖子

3829

积分

4K家园VIP

Rank: 9Rank: 9Rank: 9

积分
3829
发表于 2021-9-12 14:47:22 来自手机 | 显示全部楼层
前排顶起
回复 支持 反对

使用道具 举报

1

主题

40

帖子

5564

积分

4K家园VIP

Rank: 9Rank: 9Rank: 9

积分
5564
发表于 2021-9-15 13:40:07 | 显示全部楼层
不错。支持发一些4K纪录片。。
回复 支持 反对

使用道具 举报

1

主题

1477

帖子

4279

积分

4K家园VIP

Rank: 9Rank: 9Rank: 9

积分
4279
发表于 6 天前 | 显示全部楼层
这个资源我记得是一套的,楼主还有没有
回复 支持 反对

使用道具 举报

1

主题

1666

帖子

4606

积分

4K家园VIP

Rank: 9Rank: 9Rank: 9

积分
4606
发表于 5 天前 | 显示全部楼层
你们要是有4K资源记得分享,别小气
回复 支持 反对

使用道具 举报

您需要登录后才可以回帖 登录 | 立即注册

本版积分规则

精彩图文
Archiver|手机版|TAG|Sitemap|新帖|专题|联系我们:邮箱: 4kjia.com@gmail.com   

4k家园   ©2019