[4K电影] 我们得做些什么/We Need To Do Something (2021) 4K高清版本下载/8.40GB

[复制链接]

14

主题

1164

帖子

3482

积分

4K家园VIP

Rank: 9Rank: 9Rank: 9

积分
3482
 楼主| 发表于 2021-9-3 14:18:27 | 显示全部楼层 |阅读模式
QQ图片20210903140224_副本.png

◎译  名 我们得做些什么
◎片  名 We Need To Do Something
◎年  代 2021
◎产  地 美国
◎类  别 恐怖
◎语  言 英语
◎上映日期 2021-09-03(美国网络)
◎IMDb评分  6.8/10 from 67 users
◎IMDb链接  https://www.imdb.com/title/tt13363828/
◎豆瓣评分 0/10 from 0 users
◎豆瓣链接 https://movie.douban.com/subject/35447603/
◎片  长 97 分钟
◎导  演 肖恩·金·奥格雷迪
◎编  剧 马克斯展位三
◎主  演 凡妮莎·肖
                   谢拉·麦克康米克
                   帕特·希利



◎简  介

      梅丽莎和她的家人在暴风雨中寻找避难所后,他们被困在里面。在没有救援迹象的情况下,几小时变成了几天,梅丽莎开始意识到她和她的女朋友艾米可能与那些威胁到她家庭和整个世界的恐怖事件有关。
General
Complete name                  : E:\4K@电影 4K@MV\We.Need.to.Do.Something.2021.2160p.WEB-DL.x265.10bit.SDR.DD5.1-NOGRP.mkv
Format                         : Matroska
Format version                 : Version 4
File size                      : 8.06 GiB
Duration                       : 1 h 36 min
Overall bit rate               : 11.9 Mb/s
Encoded date                   : UTC 2021-09-03 05:27:47
Writing application            : mkvmerge v61.0.0 ('So') 64-bit
Writing library                : libebml v1.4.2 + libmatroska v1.6.4
IsTruncated                    : Yes

Video
ID                             : 1
Format                         : HEVC
Format/Info                    : High Efficiency Video Coding
Format profile                 : Main 10@L5@High
Codec ID                       : V_MPEGH/ISO/HEVC
Duration                       : 1 h 36 min
Bit rate                       : 11.3 Mb/s
Width                          : 3 576 pixels
Height                         : 2 152 pixels
Display aspect ratio           : 5:3
Frame rate mode                : Constant
Frame rate                     : 23.976 (24000/1001) FPS
Color space                    : YUV
Chroma subsampling             : 4:2:0
Bit depth                      : 10 bits
Bits/(Pixel*Frame)             : 0.061
Stream size                    : 7.64 GiB (95%)
Default                        : Yes
Forced                         : No
Color range                    : Limited
Color primaries                : BT.709
Transfer characteristics       : BT.709
Matrix coefficients            : BT.709

Audio
ID                             : 2
Format                         : AC-3
Format/Info                    : Audio Coding 3
Commercial name                : Dolby Digital
Codec ID                       : A_AC3
Duration                       : 1 h 36 min
Bit rate mode                  : Constant
Bit rate                       : 384 kb/s
Channel(s)                     : 6 channels
Channel layout                 : L R C LFE Ls Rs
Sampling rate                  : 48.0 kHz
Frame rate                     : 31.250 FPS (1536 SPF)
Compression mode               : Lossy
Stream size                    : 265 MiB (3%)
Title                          : English
Language                       : English
Service kind                   : Complete Main
Default                        : No
Forced                         : No

Text
ID                             : 3
Format                         : UTF-8
Codec ID                       : S_TEXT/UTF8
Codec ID/Info                  : UTF-8 Plain Text
Language                       : English
Default                        : Yes
Forced                         : No
下载地址

游客,如果您要查看本帖隐藏内容请回复








上一篇:屏住呼吸2 / Don't Breathe 2 (2021) 4K高清版本下载/10.58GB
下一篇:Bitchin.The.Sound.and.Fury.of.Rick.James (2021) 4K高清版本下载/11.92GB
回复

使用道具 举报

37

主题

1438

帖子

4114

积分

4K家园VIP

Rank: 9Rank: 9Rank: 9

积分
4114
发表于 2021-9-3 14:18:34 | 显示全部楼层
看帖要回,回帖才健康,在踩踩,楼主辛苦了!
回复 支持 反对

使用道具 举报

1

主题

1256

帖子

3782

积分

4K家园VIP

Rank: 9Rank: 9Rank: 9

积分
3782
发表于 2021-9-3 14:18:34 来自手机 | 显示全部楼层
支持一下楼主发表的内容
回复 支持 反对

使用道具 举报

0

主题

11

帖子

102

积分

4K家园VIP

Rank: 9Rank: 9Rank: 9

积分
102
发表于 2021-9-3 15:13:40 | 显示全部楼层
中文字幕有吗?
回复 支持 反对

使用道具 举报

2

主题

1287

帖子

3671

积分

4K家园VIP

Rank: 9Rank: 9Rank: 9

积分
3671
发表于 2021-9-3 23:03:24 | 显示全部楼层
不错 支持一个了
回复 支持 反对

使用道具 举报

40

主题

1447

帖子

4103

积分

4K家园VIP

Rank: 9Rank: 9Rank: 9

积分
4103
发表于 2021-9-4 00:32:28 | 显示全部楼层
向楼主学习
回复 支持 反对

使用道具 举报

1

主题

1265

帖子

3811

积分

4K家园VIP

Rank: 9Rank: 9Rank: 9

积分
3811
发表于 2021-9-4 01:58:32 | 显示全部楼层
求沙发
回复 支持 反对

使用道具 举报

0

主题

71

帖子

549

积分

新手上路

Rank: 1

积分
549
发表于 2021-9-5 16:10:53 | 显示全部楼层
支持一下楼主
回复 支持 反对

使用道具 举报

0

主题

6

帖子

28

积分

新手上路

Rank: 1

积分
28
发表于 2021-9-6 14:37:51 | 显示全部楼层
货币UIU币
回复

使用道具 举报

您需要登录后才可以回帖 登录 | 立即注册

本版积分规则

精彩图文
Archiver|手机版|TAG|Sitemap|新帖|专题|联系我们:邮箱: 4kjia.com@gmail.com   

4k家园   ©2019