[4K电影] 旋转 / spin‎ (2021) 4K高清版本下载/15.35GB

[复制链接]

868

主题

923

帖子

7905

积分

超级版主

Rank: 8Rank: 8

积分
7905
 楼主| 发表于 2021-9-4 21:29:05 | 显示全部楼层 |阅读模式
本帖最后由 最爱4K哟 于 2021-9-4 21:40 编辑

QQ图片20210904210852_副本.png

◎译  名 旋转
◎片  名 spin
◎年  代 2021
◎产  地 美国
◎类  别 喜剧 / 家庭 / 音乐
◎语  言 英语
◎上映日期 2021-08-13(美国)
◎IMDb评分  [size=10.6667px]5.8/10 from 324 users
◎IMDb链接  https://www.imdb.com/title/tt12969826/
◎豆瓣评分 0/10 from 0 users
◎豆瓣链接 
◎片  长 93 分钟
◎导  演 曼贾里·马基贾尼
◎编  剧 乔什·A·卡根 / 卡莉·施泰纳
◎主  演 阿凡提卡
                   阿拜·德尔
                   米拉·沙尔
                   雅利安·辛哈德里
                   安娜·卡思卡特
                   凯丽·梅德斯
                   米凯拉·露西
                   阿甘达什
                   迈克尔·毕晓普
                   琪亚娜·特蕾莎
                   伯克利西尔弗曼
                   贾布里尔·库克
                   珍妮丝·卡瓦伊
                   JumondR Rondaii
                   里亚
                   梅根克利
                   凯拉·德·阿尔梅达
                   沙琳·赫达

◎简  介

       15 岁的雷亚·库马尔 (Rhea Kumar) 的冒险经历,她与多代关系紧密的家庭住在一起。
General
Complete name                  : E:\4K@电影 4K@MV\Spin.2021.2160p.HS.WEB-DL.DDP5.1.DV.H.265-FLUX.mp4
Format                         : MPEG-4
Format profile                 : Base Media / Version 2
Codec ID                       : mp42 (isom/mp42/dby1)
File size                      : 15.4 GiB
Duration                       : 1 h 33 min
Overall bit rate mode          : Variable
Overall bit rate               : 23.4 Mb/s
Encoded date                   : UTC 2021-09-04 00:12:59
Tagged date                    : UTC 2021-09-04 00:12:59
Writing application            : GPAC-1.1.0-DEV-rev1011-ge57ff5682-master

Video
ID                             : 1
Format                         : HEVC
Format/Info                    : High Efficiency Video Coding
Format profile                 : Main 10@L5.2@Main
HDR format                     : Dolby Vision, Version 1.0, dvhe.05.06, BL+RPU
Codec ID                       : dvhe
Codec ID/Info                  : High Efficiency Video Coding with Dolby Vision
Duration                       : 1 h 33 min
Bit rate                       : 22.8 Mb/s
Width                          : 3 840 pixels
Height                         : 2 160 pixels
Display aspect ratio           : 16:9
Frame rate mode                : Constant
Frame rate                     : 23.976 (24000/1001) FPS
Color space                    : YUV
Chroma subsampling             : 4:2:0 (Type 0)
Bit depth                      : 10 bits
Bits/(Pixel*Frame)             : 0.115
Stream size                    : 14.9 GiB (97%)
Default                        : Yes
Alternate group                : 1
Encoded date                   : UTC 2021-09-04 00:09:41
Tagged date                    : UTC 2021-09-04 04:58:30
Color range                    : Full
Codec configuration box        : hvcC+dvcC

Audio
ID                             : 4
Format                         : E-AC-3
Format/Info                    : Enhanced AC-3
Commercial name                : Dolby Digital Plus
Codec ID                       : ec-3
Duration                       : 1 h 33 min
Bit rate mode                  : Constant
Bit rate                       : 640 kb/s
Maximum bit rate               : 676 kb/s
Channel(s)                     : 6 channels
Channel layout                 : L R C LFE Ls Rs
Sampling rate                  : 48.0 kHz
Frame rate                     : 31.250 FPS (1536 SPF)
Compression mode               : Lossy
Stream size                    : 429 MiB (3%)
Title                          : English
Language                       : English
Service kind                   : Complete Main
Default                        : Yes
Alternate group                : 1
Tagged date                    : UTC 2021-09-04 04:58:30

Text
ID                             : 3
Format                         : Timed Text
Codec ID                       : tx3g
Duration                       : 1 h 33 min
Bit rate mode                  : Variable
Bit rate                       : 88 b/s
Stream size                    : 60.4 KiB (0%)
Title                          : English
Language                       : English
Forced                         : No
Encoded date                   : UTC 2021-09-04 00:13:16
Tagged date                    : UTC 2021-09-04 04:58:30

迅雷下载资源速度为零,资源敏感或被和谐时,推荐使用qBittorrent等无限速下载软件,有条件的推荐115更好的下载软件!

下载地址

游客,如果您要查看本帖隐藏内容请回复

游客,如果您要查看本帖隐藏内容请回复

游客,如果您要查看本帖隐藏内容请回复






上一篇:Bitchin.The.Sound.and.Fury.of.Rick.James (2021) 4K高清版本下载/11.92GB
下一篇:我们,再一次 Us Again (2021) 4K高清版本下载/1.09GB
回复

使用道具 举报

2

主题

1594

帖子

4422

积分

4K家园VIP

Rank: 9Rank: 9Rank: 9

积分
4422
发表于 2021-9-4 21:29:10 | 显示全部楼层
回个帖子,下班咯~
回复 支持 反对

使用道具 举报

9

主题

1147

帖子

3413

积分

4K家园VIP

Rank: 9Rank: 9Rank: 9

积分
3413
发表于 2021-9-4 21:29:10 | 显示全部楼层
传说中的沙发???哇卡卡
回复 支持 反对

使用道具 举报

46

主题

1404

帖子

4048

积分

4K家园VIP

Rank: 9Rank: 9Rank: 9

积分
4048
发表于 2021-9-4 22:29:53 来自手机 | 显示全部楼层
多发些资源啊
回复 支持 反对

使用道具 举报

0

主题

1099

帖子

3311

积分

4K家园VIP

Rank: 9Rank: 9Rank: 9

积分
3311
发表于 2021-9-4 23:17:08 来自手机 | 显示全部楼层
LZ敢整点更有创意的不?兄弟们等着围观捏~
回复 支持 反对

使用道具 举报

2

主题

1209

帖子

3643

积分

4K家园VIP

Rank: 9Rank: 9Rank: 9

积分
3643
发表于 2021-9-4 23:31:19 | 显示全部楼层
路过
回复 支持 反对

使用道具 举报

0

主题

1

帖子

6

积分

新手上路

Rank: 1

积分
6
发表于 2021-9-4 23:55:16 | 显示全部楼层
的顶顶顶顶顶的顶顶顶顶顶顶顶顶顶顶顶顶顶顶顶
回复 支持 反对

使用道具 举报

0

主题

4

帖子

18

积分

新手上路

Rank: 1

积分
18
发表于 2021-9-5 00:28:23 | 显示全部楼层
非常感谢分享。。。。。。。
回复 支持 反对

使用道具 举报

您需要登录后才可以回帖 登录 | 立即注册

本版积分规则

精彩图文
Archiver|手机版|TAG|Sitemap|新帖|专题|联系我们:邮箱: 4kjia.com@gmail.com   

4k家园   ©2019