[4Kjia独享4K资源] 血祭 / Blood Sacrifice (2021) 4K高清版本下载/7.48GB

[复制链接]

868

主题

923

帖子

7905

积分

超级版主

Rank: 8Rank: 8

积分
7905
 楼主| 发表于 2021-9-6 22:26:59 | 显示全部楼层 |阅读模式
本帖最后由 最爱4K哟 于 2021-9-10 17:35 编辑

QQ图片20210907105619_副本.png

◎译  名 血祭
◎片  名 Blood Sacrifice
◎年  代 2021
◎产  地 美国
◎类  别 剧情
◎语  言 英语
◎上映日期 2021
◎IMDb评分  0/10 from 0 users
◎IMDb链接  https://www.imdb.com/title/tt9433872/
◎豆瓣评分 0/10 from 0 users
◎豆瓣链接 0
◎片  长 91 分钟
◎导  演 大卫·沙利文
◎主  演 奥马尔·古丁                  
                   小塞缪尔·梦露
                   德安德·邦兹
                   伊丽莎白·鲁伊斯
                   卡米尔·卡尔文
                   达文·古铁雷斯


◎简  介


         为了追逐梦想,你会放弃什么?在这部惊心动魄的电影中,您将看到最好的朋友科里和冈茨的旅程解开。
General
Complete name                  : E:\4K@电影 4K@MV\Blood.Sacrifice.2021.2160p.WEB-DL.AAC2.0.HEVC-EVO.mkv
Format                         : Matroska
Format version                 : Version 4
File size                      : 7.48 GiB
Duration                       : 1 h 27 min
Overall bit rate               : 12.2 Mb/s
Encoded date                   : UTC 2021-09-06 13:13:35
Writing application            : mkvmerge v19.0.0 ('Brave Captain') 64-bit
Writing library                : libebml v1.3.5 + libmatroska v1.4.8

Video
ID                             : 1
Format                         : HEVC
Format/Info                    : High Efficiency Video Coding
Format profile                 : Main 10@L5@High
Codec ID                       : V_MPEGH/ISO/HEVC
Duration                       : 1 h 27 min
Bit rate                       : 12.0 Mb/s
Width                          : 3 840 pixels
Height                         : 2 160 pixels
Display aspect ratio           : 16:9
Frame rate mode                : Constant
Frame rate                     : 23.976 (24000/1001) FPS
Color space                    : YUV
Chroma subsampling             : 4:2:0
Bit depth                      : 10 bits
Bits/(Pixel*Frame)             : 0.060
Stream size                    : 7.38 GiB (99%)
Default                        : Yes
Forced                         : No
Color range                    : Limited
Color primaries                : BT.709
Transfer characteristics       : BT.709
Matrix coefficients            : BT.709

Audio
ID                             : 2
Format                         : AAC LC
Format/Info                    : Advanced Audio Codec Low Complexity
Codec ID                       : A_AAC-2
Duration                       : 1 h 27 min
Bit rate                       : 157 kb/s
Channel(s)                     : 2 channels
Channel layout                 : L R
Sampling rate                  : 48.0 kHz
Frame rate                     : 46.875 FPS (1024 SPF)
Compression mode               : Lossy
Stream size                    : 98.7 MiB (1%)
Title                          : English
Language                       : English
Default                        : No
Forced                         : No

迅雷下载资源速度为零,资源敏感或被和谐时,推荐使用qBittorrent等无限速下载软件,有条件的推荐115更好的下载软件!

下载地址


游客,如果您要查看本帖隐藏内容请回复

****此区域为收费内容****    需支付 9 金币后可查看立即购买






上一篇:抓马抓马 / Dramarama (2020) 4K高清版本下载/7.80GB
下一篇:偷天换日 / The Italian Job (2003) 4K高清版本下载/19.40GB
回复

使用道具 举报

59

主题

1496

帖子

4284

积分

4K家园VIP

Rank: 9Rank: 9Rank: 9

积分
4284
发表于 2021-9-6 22:27:02 | 显示全部楼层
看帖要回,回帖才健康,在踩踩,楼主辛苦了!
回复 支持 反对

使用道具 举报

2

主题

1310

帖子

3950

积分

4K家园VIP

Rank: 9Rank: 9Rank: 9

积分
3950
发表于 2021-9-6 22:27:02 | 显示全部楼层
我也顶起出售广告位
回复 支持 反对

使用道具 举报

1

主题

1572

帖子

4296

积分

4K家园VIP

Rank: 9Rank: 9Rank: 9

积分
4296
发表于 2021-9-6 22:27:03 | 显示全部楼层
高手云集 果断围观
回复 支持 反对

使用道具 举报

37

主题

1436

帖子

4108

积分

4K家园VIP

Rank: 9Rank: 9Rank: 9

积分
4108
发表于 2021-9-7 07:40:57 | 显示全部楼层
正需要
回复 支持 反对

使用道具 举报

0

主题

131

帖子

798

积分

新手上路

Rank: 1

积分
798
发表于 2021-9-7 13:57:38 | 显示全部楼层
超级喜爱,谢谢楼主分享
回复 支持 反对

使用道具 举报

50

主题

1436

帖子

4170

积分

4K家园VIP

Rank: 9Rank: 9Rank: 9

积分
4170
发表于 2021-9-7 22:19:59 来自手机 | 显示全部楼层
4K版的应该更清晰吧
回复 支持 反对

使用道具 举报

您需要登录后才可以回帖 登录 | 立即注册

本版积分规则

精彩图文
Archiver|手机版|TAG|Sitemap|新帖|专题|联系我们:邮箱: 4kjia.com@gmail.com   

4k家园   ©2019