[4K电影] 偷天换日 / The Italian Job (2003) 4K高清版本下载/19.40GB

[复制链接]

872

主题

927

帖子

7961

积分

超级版主

Rank: 8Rank: 8

积分
7961
 楼主| 发表于 2021-9-9 10:07:18 | 显示全部楼层 |阅读模式
QQ图片20210909095851.png

◎译  名 偷天换日/天罗盗网/意大利任务/爆窃意大利
◎片  名 The Italian Job
◎年  代 2003
◎产  地 美国
◎类  别 动作/犯罪/惊悚
◎语  言 英语
◎上映日期 2003-05-30(美国)
◎IMDb评分  7.0/10 from 352543 users
◎IMDb链接  https://www.imdb.com/title/tt0317740/
◎豆瓣评分 7.6/10 from 116690 users
◎豆瓣链接 https://movie.douban.com/subject/1301345/
◎片  长 111分钟
◎导  演 F·加里·格雷 F. Gary Gray
◎主  演 马克·沃尔伯格 Mark Wahlberg
      查理兹·塞隆 Charlize Theron
      爱德华·诺顿 Edward Norton
      唐纳德·萨瑟兰 Donald Sutherland
      杰森·斯坦森 Jason Statham
      茅斯·达夫 Mos Def
      赛斯·格林 Seth Green
      凯莉·布鲁克 Kelly Brook
      弗兰基·G Franky G
      奥莱克·克鲁帕 Olek Krupa
      玛丽·波特西尔 Mary Portser



◎简  介


  查理(马克·沃尔伯格 Mark Wahlberg 饰)本来可以拿着抢劫回来的那箱黄金安度余生,同伙史蒂夫(爱德华·诺顿 Edward Norton饰)的出卖却让他的阵脚大乱。史蒂夫不但独吞了巨款逃亡洛杉矶,还害得查理尝尽牢狱之苦。
  现在从监狱出来的查理,正踌躇满志要找史蒂夫算上一帐。他网罗了盗窃高手——美女斯黛拉(查理兹·塞隆 Charlize Theron 饰)专门负责开保险柜,而他和其他搭档,则全力设计出一条通畅的大道,供迅速逃跑之用。斯黛拉前往引史蒂夫上勾,却被老奸巨猾的史蒂夫识破。查理则飞速的破坏了洛杉矶的红绿灯系统,洛杉矶发生了蔚为壮观的大塞车,然而,令他们意外的是,逃脱没有如此简单——史蒂夫没有驱车追赶,他用了一辆直升飞机,在他们上空穷追不舍。洛杉矶的地下隧道和街头小巷,陷入了一片混战。

Video
ID : 1
Format : HEVC
Format/Info : High Efficiency Video Coding
Format profile : Main 10@L5@High
HDR format : Dolby Vision, Version 1.0, dvhe.05.06, BL+RPU
Codec ID : dvhe
Codec ID/Info : High Efficiency Video Coding with Dolby Vision
Duration : 1 h 50 min
Bit rate : 24.7 Mb/s
Width : 3 840 pixels
Height : 1 640 pixels
Original height : 1 634 pixels
Display aspect ratio : 2.35:1
Original display aspect ratio : 2.35:1
Frame rate mode : Constant
Frame rate : 23.976 (24000/1001) FPS
Color space : YUV
Chroma subsampling : 4:2:0
Bit depth : 10 bits
Bits/(Pixel*Frame) : 0.164
Stream size : 19.1 GiB (98%)
Default : Yes
Alternate group : 1
Encoded date : UTC 2021-09-08 13:11:54
Tagged date : UTC 2021-09-08 16:59:08
Codec configuration box : hvcC+dvcC

Audio
ID : 2
Format : AC-3
Format/Info : Audio Coding 3
Commercial name : Dolby Digital
Codec ID : ac-3
Duration : 1 h 50 min
Bit rate mode : Constant
Bit rate : 384 kb/s
Maximum bit rate : 406 kb/s
Channel(s) : 6 channels
Channel layout : L R C LFE Ls Rs
Sampling rate : 48.0 kHz
Frame rate : 31.250 FPS (1536 SPF)
Compression mode : Lossy
Stream size : 304 MiB (2%)
Title : English (US)
Language : English
Service kind : Complete Main
Encoded date : UTC 2021-09-08 13:09:33
Tagged date : UTC 2021-09-08 16:59:08

Text #1
ID : 3
Format : Timed Text
Codec ID : tx3g
Duration : 1 h 46 min
Bit rate mode : Variable
Bit rate : 64 b/s
Stream size : 49.9 KiB (0%)
Title : English
Language : English
Forced : No
Encoded date : UTC 2021-09-08 13:14:07
Tagged date : UTC 2021-09-08 16:59:08

Text #2
ID : 4
Format : Timed Text
Codec ID : tx3g
Duration : 1 h 50 min
Bit rate mode : Variable
Bit rate : 75 b/s
Stream size : 60.6 KiB (0%)
Title : SDH
Language : English
Forced : No
Encoded date : UTC 2021-09-08 13:14:08
Tagged date : UTC 2021-09-08 16:59:08

Menu
00:00:00.000 : Chapter 1
00:02:25.270 : Chapter 2
00:05:25.867 : Chapter 3
00:11:25.143 : Chapter 4
00:16:47.506 : Chapter 5
00:23:58.980 : Chapter 6
00:30:02.259 : Chapter 7
00:40:28.719 : Chapter 8
00:54:57.338 : Chapter 9
01:01:32.858 : Chapter 10
01:08:06.710 : Chapter 11
01:16:48.858 : Chapter 12
01:23:26.131 : Chapter 13
01:28:34.855 : Chapter 14
01:34:53.568 : Chapter 15
01:40:15.806 : Chapter 16


迅雷下载资源速度为零,资源敏感或被和谐时,推荐使用qBittorrent等无限速下载软件,有条件的推荐115更好的下载软件!

下载地址

偷天换日(19.40GB)The.Italian.Job.2003.2160p.WEB-DL.DD5.1.DV.MP4.x265-TEPES.torrent (24.89 KB, 售价: 9 金币)

上一篇:血祭 / Blood Sacrifice (2021) 4K高清版本下载/7.48GB
下一篇:偷窥者(内封中字) / The Voyeurs (2021) 4K高清版本下载/12.73GB
回复

使用道具 举报

1

主题

1367

帖子

3943

积分

4K家园VIP

Rank: 9Rank: 9Rank: 9

积分
3943
发表于 2021-9-9 10:07:22 | 显示全部楼层
支持楼主,用户楼主,楼主英明呀!!!
回复 支持 反对

使用道具 举报

11

主题

1151

帖子

3425

积分

4K家园VIP

Rank: 9Rank: 9Rank: 9

积分
3425
发表于 2021-9-9 10:48:44 来自手机 | 显示全部楼层
顶顶更健康
回复 支持 反对

使用道具 举报

1

主题

1571

帖子

4335

积分

4K家园VIP

Rank: 9Rank: 9Rank: 9

积分
4335
发表于 2021-9-9 11:15:25 | 显示全部楼层
正需要
回复 支持 反对

使用道具 举报

0

主题

323

帖子

3301

积分

4K家园VIP

Rank: 9Rank: 9Rank: 9

积分
3301
QQ
发表于 2021-9-9 13:01:22 | 显示全部楼层
谢谢楼主分享,辛苦了!
回复 支持 反对

使用道具 举报

0

主题

136

帖子

828

积分

新手上路

Rank: 1

积分
828
发表于 2021-9-9 13:42:20 | 显示全部楼层
楼主太厉害了!
回复 支持 反对

使用道具 举报

64

主题

1483

帖子

4263

积分

4K家园VIP

Rank: 9Rank: 9Rank: 9

积分
4263
发表于 2021-9-9 15:45:19 | 显示全部楼层
路过 帮顶 嘿嘿
回复 支持 反对

使用道具 举报

4

主题

1372

帖子

3960

积分

4K家园VIP

Rank: 9Rank: 9Rank: 9

积分
3960
发表于 2021-9-9 18:05:53 | 显示全部楼层
楼下的接上
回复 支持 反对

使用道具 举报

您需要登录后才可以回帖 登录 | 立即注册

本版积分规则

精彩图文
Archiver|手机版|TAG|Sitemap|新帖|专题|联系我们:邮箱: 4kjia.com@gmail.com   

4k家园   ©2019