[4K电影] [首发] 接住子弹 / Catch The Bullet (2021) 4K高清版本下载/12.73GB

[复制链接]

868

主题

923

帖子

7905

积分

超级版主

Rank: 8Rank: 8

积分
7905
 楼主| 发表于 2021-9-10 13:11:46 | 显示全部楼层 |阅读模式
本帖最后由 最爱4K哟 于 2021-9-11 17:49 编辑

QQ图片20210910124527_副本.png

◎译  名 接住子弹
◎片  名 Catch The Bullet
◎年  代 2021
◎产  地 美国
◎类  别 西部
◎语  言 英语
◎上映日期 2021-11-10(美国)
◎IMDb评分  0/10 from 0 users
◎IMDb链接  https://www.imdb.com/title/tt11833710
◎豆瓣评分 0/10 from 0 users
◎豆瓣链接 https://movie.douban.com/subject/35567518/
◎片  长 88 分钟
◎导  演 
◎编  剧 
◎主  演



◎简  介

       这部由彼得·法西内利(暮光之城系列)主演的西部片展示了当你把一个好人推得太远时会发生什么。美国元帅布里特·麦克马斯特斯(Britt MacMasters)执行完一项任务后返回,发现他的父亲(汤姆·斯凯里特)受伤,他的儿子查德被歹徒犹太人布莱克绑架。在他们的追踪过程中,布里特与一名持枪的副手和一名坚忍的波尼追踪器组成了一队。但杰德和布里特都危险地靠近红沙漠的苏族领土,这构成了远远超出他们两人想象的威胁。

迅雷下载资源速度为零,资源敏感或被和谐时,推荐使用qBittorrent等无限速下载软件,有条件的推荐115更好的下载软件!
General
Complete name                  : E:\4K@电影 4K@MV\Catch.the.Bullet.2021.1440p.WEB-DL.DD5.1.HEVC-EVO.mkv
Format                         : Matroska
Format version                 : Version 4
File size                      : 13.0 GiB
Duration                       : 1 h 28 min
Overall bit rate               : 20.9 Mb/s
Encoded date                   : UTC 2021-09-09 19:17:10
Writing application            : mkvmerge v19.0.0 ('Brave Captain') 64-bit
Writing library                : libebml v1.3.5 + libmatroska v1.4.8

Video
ID                             : 1
Format                         : HEVC
Format/Info                    : High Efficiency Video Coding
Format profile                 : Main 10@L5@High
Codec ID                       : V_MPEGH/ISO/HEVC
Duration                       : 1 h 28 min
Bit rate                       : 20.5 Mb/s
Width                          : 3 832 pixels
Height                         : 2 152 pixels
Display aspect ratio           : 16:9
Frame rate mode                : Constant
Frame rate                     : 23.976 (23976/1000) FPS
Color space                    : YUV
Chroma subsampling             : 4:2:0
Bit depth                      : 10 bits
Bits/(Pixel*Frame)             : 0.104
Stream size                    : 12.7 GiB (98%)
Default                        : Yes
Forced                         : No
Color range                    : Limited
Color primaries                : BT.709
Transfer characteristics       : BT.709
Matrix coefficients            : BT.709

Audio
ID                             : 2
Format                         : AC-3
Format/Info                    : Audio Coding 3
Commercial name                : Dolby Digital
Codec ID                       : A_AC3
Duration                       : 1 h 28 min
Bit rate mode                  : Constant
Bit rate                       : 384 kb/s
Channel(s)                     : 6 channels
Channel layout                 : L R C LFE Ls Rs
Sampling rate                  : 48.0 kHz
Frame rate                     : 31.250 FPS (1536 SPF)
Compression mode               : Lossy
Stream size                    : 244 MiB (2%)
Title                          : English
Language                       : English
Service kind                   : Complete Main
Default                        : No
Forced                         : No

下载地址
游客,如果您要查看本帖隐藏内容请回复

首发资源
****此区域为收费内容****    需支付 9 金币后可查看立即购买




上一篇:偷窥者(内封中字) / The Voyeurs (2021) 4K高清版本下载/12.73GB
下一篇:来自远方 (内封中字)/ Come from Away (2021) 4K高清版本下载/18.98GB
回复

使用道具 举报

2

主题

1335

帖子

4023

积分

4K家园VIP

Rank: 9Rank: 9Rank: 9

积分
4023
发表于 2021-9-10 13:11:56 | 显示全部楼层
LZ敢整点更有创意的不?兄弟们等着围观捏~
回复 支持 反对

使用道具 举报

0

主题

45

帖子

720

积分

4K家园VIP

Rank: 9Rank: 9Rank: 9

积分
720
发表于 2021-9-11 02:47:57 | 显示全部楼层
没有字幕 英文的也没有
回复 支持 反对

使用道具 举报

6

主题

1591

帖子

4361

积分

中级会员

Rank: 4

积分
4361
发表于 2021-9-11 13:56:47 | 显示全部楼层
正好需要啊
回复 支持 反对

使用道具 举报

0

主题

12

帖子

147

积分

新手上路

Rank: 1

积分
147
发表于 2021-9-11 21:04:01 来自手机 | 显示全部楼层
感谢楼主分享,支持你
回复 支持 反对

使用道具 举报

2

主题

80

帖子

941

积分

4K家园VIP

Rank: 9Rank: 9Rank: 9

积分
941
发表于 2021-9-12 22:39:13 | 显示全部楼层
没有字幕差评
回复 支持 反对

使用道具 举报

2

主题

1566

帖子

4298

积分

4K家园VIP

Rank: 9Rank: 9Rank: 9

积分
4298
发表于 7 天前 | 显示全部楼层
4K家园不错,希望这种资源越多越好
回复 支持 反对

使用道具 举报

1

主题

1477

帖子

4279

积分

4K家园VIP

Rank: 9Rank: 9Rank: 9

积分
4279
发表于 7 天前 来自手机 | 显示全部楼层
啊啊啊啊啊啊啊啊啊啊啊
回复 支持 反对

使用道具 举报

1

主题

1241

帖子

3745

积分

4K家园VIP

Rank: 9Rank: 9Rank: 9

积分
3745
发表于 6 天前 | 显示全部楼层
没人回帖。。。我来个吧
回复 支持 反对

使用道具 举报

您需要登录后才可以回帖 登录 | 立即注册

本版积分规则

精彩图文
Archiver|手机版|TAG|Sitemap|新帖|专题|联系我们:邮箱: 4kjia.com@gmail.com   

4k家园   ©2019