[4K电影] 来自远方 (内封中字)/ Come from Away (2021) 4K高清版本下载/18.98GB

[复制链接]

24

主题

1161

帖子

3461

积分

4K家园VIP

Rank: 9Rank: 9Rank: 9

积分
3461
 楼主| 发表于 2021-9-10 15:07:12 | 显示全部楼层 |阅读模式
本帖最后由 最爱4K哟 于 2021-9-10 17:13 编辑

QQ图片20210910144050_副本.png

◎译  名 来自远方
◎片  名 Come from Away
◎年  代 2017
◎产  地 美国
◎类  别 剧情 / 喜剧 / 歌舞
◎语  言 英语
◎上映日期 2021-09-10(美国网络)
◎IMDb评分  9.4/10 from 40 users
◎IMDb链接  https://www.imdb.com/title/tt7638556/
◎豆瓣评分 0/10 from 0 users
◎豆瓣链接 https://movie.douban.com/subject/27200859/
◎片  长 106分钟
◎导  演 克里斯托弗·阿什利
◎编  剧 大卫·海因 / 艾琳·桑科夫
◎主  演 佩特里娜·布罗姆利
                   萨拉
                   德隆·格兰特
                   乔尔·哈奇
                   托尼·莱帕奇
                   Q·史密斯
                   凯撒·萨马约亚
                   阿斯特里德·范·维伦
                   艾米莉·沃尔顿
                   吉姆·沃尔顿
                   莎伦·惠特利
                   保罗·惠蒂


◎简  介


       托尼奖获奖百老汇音乐剧《来自远方》(Come from Away)将被改编成电影,The Mark Gordon Company投资制片,原作者、词曲家Irene Sankoff和David Hein将编写剧本,剧版导演克里斯托弗·阿什利也确定执导影片。设定在9·11事件之后,38架飞机意外迫降加拿大纽芬兰与拉布拉多省的小镇Gander,7000名旅客滞留。在被迫停飞的处境下,小镇的居民热情地欢迎并接纳了所有旅客,他们的慷慨善良与恐怖袭击形成了鲜明的对比。文化相互碰撞,人们情绪高涨,不安感转变为信任,音乐响彻深夜,感激最终形成了长久的友谊。
  该音乐剧大获成功,评论极佳,获7项托尼奖提名,最终获得最佳音乐剧导演奖。
General
Complete name                  : E:\4K@电影 4K@MV\Come.From.Away.2017.2160p.ATVP.WEB-DL.DDP5.1.Atmos.DV.MP4.x265-DVSUX.mp4
Format                         : MPEG-4
Format profile                 : Base Media / Version 2
Codec ID                       : mp42 (isom/mp42/dby1)
File size                      : 19.0 GiB
Duration                       : 1 h 46 min
Overall bit rate mode          : Variable
Overall bit rate               : 25.4 Mb/s
Encoded date                   : UTC 2021-09-10 05:42:39
Tagged date                    : UTC 2021-09-10 05:42:39

Video
ID                             : 1
Format                         : HEVC
Format/Info                    : High Efficiency Video Coding
Format profile                 : Main 10@L5@High
HDR format                     : Dolby Vision, Version 1.0, dvhe.05.06, BL+RPU
Codec ID                       : dvhe
Codec ID/Info                  : High Efficiency Video Coding with Dolby Vision
Duration                       : 1 h 46 min
Bit rate                       : 24.6 Mb/s
Width                          : 3 840 pixels
Height                         : 1 920 pixels
Display aspect ratio           : 2.000
Frame rate mode                : Constant
Frame rate                     : 23.976 (24000/1001) FPS
Color space                    : YUV
Chroma subsampling             : 4:2:0
Bit depth                      : 10 bits
Bits/(Pixel*Frame)             : 0.139
Stream size                    : 18.4 GiB (97%)
Default                        : Yes
Alternate group                : 1
Encoded date                   : UTC 2021-09-10 05:41:03
Tagged date                    : UTC 2021-09-10 05:43:11
Codec configuration box        : hvcC+dvcC

Audio
ID                             : 2
Format                         : E-AC-3 JOC
Format/Info                    : Enhanced AC-3 with Joint Object Coding
Commercial name                : Dolby Digital Plus with Dolby Atmos
Codec ID                       : ec-3
Duration                       : 1 h 46 min
Bit rate mode                  : Constant
Bit rate                       : 768 kb/s
Maximum bit rate               : 811 kb/s
Channel(s)                     : 6 channels
Channel layout                 : L R C LFE Ls Rs
Sampling rate                  : 48.0 kHz
Frame rate                     : 31.250 FPS (1536 SPF)
Compression mode               : Lossy
Stream size                    : 588 MiB (3%)
Title                          : English
Language                       : English
Service kind                   : Complete Main
Default                        : Yes
Alternate group                : 1
Tagged date                    : UTC 2021-09-10 05:43:11
Complexity index               : Not present / 16
Number of dynamic objects      : 15
Bed channel count              : 1 channel
Bed channel configuration      : LFE

Text #1
ID                             : 3
Format                         : Timed Text
Codec ID                       : tx3g
Duration                       : 1 h 44 min
Bit rate mode                  : Variable
Bit rate                       : 112 b/s
Stream size                    : 86.1 KiB (0%)
Title                          : English
Language                       : English
Forced                         : No
Encoded date                   : UTC 2021-09-10 05:42:58
Tagged date                    : UTC 2021-09-10 05:43:11

Text #2
ID                             : 4
Format                         : Timed Text
Codec ID                       : tx3g
Duration                       : 1 h 46 min
Bit rate mode                  : Variable
Bit rate                       : 153 b/s
Stream size                    : 120 KiB (0%)
Title                          : Arabic
Language                       : Arabic
Forced                         : No
Encoded date                   : UTC 2021-09-10 05:42:58
Tagged date                    : UTC 2021-09-10 05:43:11

Text #3
ID                             : 5
Format                         : Timed Text
Codec ID                       : tx3g
Duration                       : 1 h 46 min
Bit rate mode                  : Variable
Bit rate                       : 159 b/s
Stream size                    : 125 KiB (0%)
Title                          : Bulgarian
Language                       : Bulgarian
Forced                         : No
Encoded date                   : UTC 2021-09-10 05:42:58
Tagged date                    : UTC 2021-09-10 05:43:11

Text #4
ID                             : 6
Format                         : Timed Text
Codec ID                       : tx3g
Duration                       : 1 h 46 min
Bit rate mode                  : Variable
Bit rate                       : 99 b/s
Stream size                    : 77.5 KiB (0%)
Title                          : Chinese-Cantonese
Language                       : Chinese
Forced                         : No
Encoded date                   : UTC 2021-09-10 05:42:58
Tagged date                    : UTC 2021-09-10 05:43:11

Text #5
ID                             : 7
Format                         : Timed Text
Codec ID                       : tx3g
Duration                       : 1 h 46 min
Bit rate mode                  : Variable
Bit rate                       : 101 b/s
Stream size                    : 78.7 KiB (0%)
Title                          : Chinese-Simplified
Language                       : Chinese
Forced                         : No
Encoded date                   : UTC 2021-09-10 05:42:59
Tagged date                    : UTC 2021-09-10 05:43:11

Text #6
ID                             : 8
Format                         : Timed Text
Codec ID                       : tx3g
Duration                       : 1 h 46 min
Bit rate mode                  : Variable
Bit rate                       : 98 b/s
Stream size                    : 77.1 KiB (0%)
Title                          : Chinese-Traditional
Language                       : Chinese
Forced                         : No
Encoded date                   : UTC 2021-09-10 05:42:59
Tagged date                    : UTC 2021-09-10 05:43:11


Text #7
ID                             : 9
Format                         : Timed Text
Codec ID                       : tx3g
Duration                       : 1 h 46 min
Bit rate mode                  : Variable
Bit rate                       : 99 b/s
Stream size                    : 77.2 KiB (0%)
Title                          : Czech
Language                       : Czech
Forced                         : No
Encoded date                   : UTC 2021-09-10 05:42:59
Tagged date                    : UTC 2021-09-10 05:43:11

Text #8
ID                             : 10
Format                         : Timed Text
Codec ID                       : tx3g
Duration                       : 1 h 46 min
Bit rate mode                  : Variable
Bit rate                       : 103 b/s
Stream size                    : 80.7 KiB (0%)
Title                          : Danish
Language                       : Danish
Forced                         : No
Encoded date                   : UTC 2021-09-10 05:42:59
Tagged date                    : UTC 2021-09-10 05:43:11

Text #9
ID                             : 11
Format                         : Timed Text
Codec ID                       : tx3g
Duration                       : 1 h 46 min
Bit rate mode                  : Variable
Bit rate                       : 99 b/s
Stream size                    : 77.9 KiB (0%)
Title                          : Dutch
Language                       : Dutch
Forced                         : No
Encoded date                   : UTC 2021-09-10 05:43:01
Tagged date                    : UTC 2021-09-10 05:43:11

Text #10
ID                             : 12
Format                         : Timed Text
Codec ID                       : tx3g
Duration                       : 1 h 46 min
Bit rate mode                  : Variable
Bit rate                       : 98 b/s
Stream size                    : 76.9 KiB (0%)
Title                          : Estonian
Language                       : Estonian
Forced                         : No
Encoded date                   : UTC 2021-09-10 05:43:01
Tagged date                    : UTC 2021-09-10 05:43:11

Text #11
ID                             : 13
Format                         : Timed Text
Codec ID                       : tx3g
Duration                       : 1 h 46 min
Bit rate mode                  : Variable
Bit rate                       : 103 b/s
Stream size                    : 80.3 KiB (0%)
Title                          : Finnish
Language                       : Finnish
Forced                         : No
Encoded date                   : UTC 2021-09-10 05:43:02
Tagged date                    : UTC 2021-09-10 05:43:11

Text #12
ID                             : 14
Format                         : Timed Text
Codec ID                       : tx3g
Duration                       : 1 h 46 min
Bit rate mode                  : Variable
Bit rate                       : 105 b/s
Stream size                    : 82.4 KiB (0%)
Title                          : French
Language                       : French
Forced                         : No
Encoded date                   : UTC 2021-09-10 05:43:02
Tagged date                    : UTC 2021-09-10 05:43:11

Text #13
ID                             : 15
Format                         : Timed Text
Codec ID                       : tx3g
Duration                       : 1 h 46 min
Bit rate mode                  : Variable
Bit rate                       : 105 b/s
Stream size                    : 82.5 KiB (0%)
Title                          : French
Language                       : French
Forced                         : No
Encoded date                   : UTC 2021-09-10 05:43:02
Tagged date                    : UTC 2021-09-10 05:43:11

Text #14
ID                             : 16
Format                         : Timed Text
Codec ID                       : tx3g
Duration                       : 1 h 46 min
Bit rate mode                  : Variable
Bit rate                       : 102 b/s
Stream size                    : 79.9 KiB (0%)
Title                          : German
Language                       : German
Forced                         : No
Encoded date                   : UTC 2021-09-10 05:43:02
Tagged date                    : UTC 2021-09-10 05:43:11

Text #15
ID                             : 17
Format                         : Timed Text
Codec ID                       : tx3g
Duration                       : 1 h 46 min
Bit rate mode                  : Variable
Bit rate                       : 169 b/s
Stream size                    : 132 KiB (0%)
Title                          : Greek
Language                       : Greek
Forced                         : No
Encoded date                   : UTC 2021-09-10 05:43:03
Tagged date                    : UTC 2021-09-10 05:43:11

Text #16
ID                             : 18
Format                         : Timed Text
Codec ID                       : tx3g
Duration                       : 1 h 46 min
Bit rate mode                  : Variable
Bit rate                       : 142 b/s
Stream size                    : 111 KiB (0%)
Title                          : Hebrew
Language                       : Hebrew
Forced                         : No
Encoded date                   : UTC 2021-09-10 05:43:03
Tagged date                    : UTC 2021-09-10 05:43:11

Text #17
ID                             : 19
Format                         : Timed Text
Codec ID                       : tx3g
Duration                       : 1 h 46 min
Bit rate mode                  : Variable
Bit rate                       : 268 b/s
Stream size                    : 210 KiB (0%)
Title                          : Hindi
Language                       : Hindi
Forced                         : No
Encoded date                   : UTC 2021-09-10 05:43:03
Tagged date                    : UTC 2021-09-10 05:43:11

Text #18
ID                             : 20
Format                         : Timed Text
Codec ID                       : tx3g
Duration                       : 1 h 46 min
Bit rate mode                  : Variable
Bit rate                       : 104 b/s
Stream size                    : 81.1 KiB (0%)
Title                          : Hungarian
Language                       : Hungarian
Forced                         : No
Encoded date                   : UTC 2021-09-10 05:43:04
Tagged date                    : UTC 2021-09-10 05:43:11

Text #19
ID                             : 21
Format                         : Timed Text
Codec ID                       : tx3g
Duration                       : 1 h 46 min
Bit rate mode                  : Variable
Bit rate                       : 107 b/s
Stream size                    : 84.0 KiB (0%)
Title                          : Indonesian
Language                       : Indonesian
Forced                         : No
Encoded date                   : UTC 2021-09-10 05:43:05
Tagged date                    : UTC 2021-09-10 05:43:11

Text #20
ID                             : 22
Format                         : Timed Text
Codec ID                       : tx3g
Duration                       : 1 h 46 min
Bit rate mode                  : Variable
Bit rate                       : 108 b/s
Stream size                    : 84.9 KiB (0%)
Title                          : Italian
Language                       : Italian
Forced                         : No
Encoded date                   : UTC 2021-09-10 05:43:05
Tagged date                    : UTC 2021-09-10 05:43:11

Text #21
ID                             : 23
Format                         : Timed Text
Codec ID                       : tx3g
Duration                       : 1 h 46 min
Bit rate mode                  : Variable
Bit rate                       : 85 b/s
Stream size                    : 66.2 KiB (0%)
Title                          : Japanese
Language                       : Japanese
Forced                         : No
Encoded date                   : UTC 2021-09-10 05:43:05
Tagged date                    : UTC 2021-09-10 05:43:11

Text #22
ID                             : 24
Format                         : Timed Text
Codec ID                       : tx3g
Duration                       : 1 h 46 min
Bit rate mode                  : Variable
Bit rate                       : 124 b/s
Stream size                    : 97.3 KiB (0%)
Title                          : Korean
Language                       : Korean
Forced                         : No
Encoded date                   : UTC 2021-09-10 05:43:05
Tagged date                    : UTC 2021-09-10 05:43:11

Text #23
ID                             : 25
Format                         : Timed Text
Codec ID                       : tx3g
Duration                       : 1 h 46 min
Bit rate mode                  : Variable
Bit rate                       : 107 b/s
Stream size                    : 84.1 KiB (0%)
Title                          : Latvian
Language                       : Latvian
Forced                         : No
Encoded date                   : UTC 2021-09-10 05:43:05
Tagged date                    : UTC 2021-09-10 05:43:11

Text #24
ID                             : 26
Format                         : Timed Text
Codec ID                       : tx3g
Duration                       : 1 h 46 min
Bit rate mode                  : Variable
Bit rate                       : 106 b/s
Stream size                    : 82.9 KiB (0%)
Title                          : Lithuanian
Language                       : Lithuanian
Forced                         : No
Encoded date                   : UTC 2021-09-10 05:43:06
Tagged date                    : UTC 2021-09-10 05:43:11

Text #25
ID                             : 27
Format                         : Timed Text
Codec ID                       : tx3g
Duration                       : 1 h 46 min
Bit rate mode                  : Variable
Bit rate                       : 112 b/s
Stream size                    : 87.4 KiB (0%)
Title                          : Malay
Language                       : Malay
Forced                         : No
Encoded date                   : UTC 2021-09-10 05:43:06
Tagged date                    : UTC 2021-09-10 05:43:11

Text #26
ID                             : 28
Format                         : Timed Text
Codec ID                       : tx3g
Duration                       : 1 h 46 min
Bit rate mode                  : Variable
Bit rate                       : 103 b/s
Stream size                    : 80.4 KiB (0%)
Title                          : Norwegian
Language                       : Norwegian
Forced                         : No
Encoded date                   : UTC 2021-09-10 05:43:06
Tagged date                    : UTC 2021-09-10 05:43:11

Text #27
ID                             : 29
Format                         : Timed Text
Codec ID                       : tx3g
Duration                       : 1 h 46 min
Bit rate mode                  : Variable
Bit rate                       : 107 b/s
Stream size                    : 83.8 KiB (0%)
Title                          : Polish
Language                       : Polish
Forced                         : No
Encoded date                   : UTC 2021-09-10 05:43:06
Tagged date                    : UTC 2021-09-10 05:43:11

Text #28
ID                             : 30
Format                         : Timed Text
Codec ID                       : tx3g
Duration                       : 1 h 46 min
Bit rate mode                  : Variable
Bit rate                       : 108 b/s
Stream size                    : 84.6 KiB (0%)
Title                          : Portuguese
Language                       : Portuguese
Forced                         : No
Encoded date                   : UTC 2021-09-10 05:43:07
Tagged date                    : UTC 2021-09-10 05:43:11

Text #29
ID                             : 31
Format                         : Timed Text
Codec ID                       : tx3g
Duration                       : 1 h 46 min
Bit rate mode                  : Variable
Bit rate                       : 102 b/s
Stream size                    : 80.2 KiB (0%)
Title                          : Portuguese
Language                       : Portuguese
Forced                         : No
Encoded date                   : UTC 2021-09-10 05:43:07
Tagged date                    : UTC 2021-09-10 05:43:11

Text #30
ID                             : 32
Format                         : Timed Text
Codec ID                       : tx3g
Duration                       : 1 h 46 min
Bit rate mode                  : Variable
Bit rate                       : 168 b/s
Stream size                    : 131 KiB (0%)
Title                          : Russian
Language                       : Russian
Forced                         : No
Encoded date                   : UTC 2021-09-10 05:43:07
Tagged date                    : UTC 2021-09-10 05:43:11

Text #31
ID                             : 33
Format                         : Timed Text
Codec ID                       : tx3g
Duration                       : 1 h 46 min
Bit rate mode                  : Variable
Bit rate                       : 103 b/s
Stream size                    : 80.4 KiB (0%)
Title                          : Slovak
Language                       : Slovak
Forced                         : No
Encoded date                   : UTC 2021-09-10 05:43:07
Tagged date                    : UTC 2021-09-10 05:43:11

Text #32
ID                             : 34
Format                         : Timed Text
Codec ID                       : tx3g
Duration                       : 1 h 46 min
Bit rate mode                  : Variable
Bit rate                       : 91 b/s
Stream size                    : 71.3 KiB (0%)
Title                          : Slovenian
Language                       : Slovenian
Forced                         : No
Encoded date                   : UTC 2021-09-10 05:43:08
Tagged date                    : UTC 2021-09-10 05:43:11

Text #33
ID                             : 35
Format                         : Timed Text
Codec ID                       : tx3g
Duration                       : 1 h 46 min
Bit rate mode                  : Variable
Bit rate                       : 103 b/s
Stream size                    : 80.8 KiB (0%)
Title                          : Spanish
Language                       : Spanish
Forced                         : No
Encoded date                   : UTC 2021-09-10 05:43:08
Tagged date                    : UTC 2021-09-10 05:43:11

Text #34
ID                             : 36
Format                         : Timed Text
Codec ID                       : tx3g
Duration                       : 1 h 46 min
Bit rate mode                  : Variable
Bit rate                       : 104 b/s
Stream size                    : 81.6 KiB (0%)
Title                          : Spanish-EU
Language                       : Spanish
Forced                         : No
Encoded date                   : UTC 2021-09-10 05:43:08
Tagged date                    : UTC 2021-09-10 05:43:11

Text #35
ID                             : 37
Format                         : Timed Text
Codec ID                       : tx3g
Duration                       : 1 h 46 min
Bit rate mode                  : Variable
Bit rate                       : 111 b/s
Stream size                    : 86.7 KiB (0%)
Title                          : Swedish
Language                       : Swedish
Forced                         : No
Encoded date                   : UTC 2021-09-10 05:43:08
Tagged date                    : UTC 2021-09-10 05:43:11

Text #36
ID                             : 38
Format                         : Timed Text
Codec ID                       : tx3g
Duration                       : 1 h 46 min
Bit rate mode                  : Variable
Bit rate                       : 329 b/s
Stream size                    : 257 KiB (0%)
Title                          : Tamil
Language                       : Tamil
Forced                         : No
Encoded date                   : UTC 2021-09-10 05:43:10
Tagged date                    : UTC 2021-09-10 05:43:11

Text #37
ID                             : 39
Format                         : Timed Text
Codec ID                       : tx3g
Duration                       : 1 h 46 min
Bit rate mode                  : Variable
Bit rate                       : 284 b/s
Stream size                    : 222 KiB (0%)
Title                          : Telugu
Language                       : Telugu
Forced                         : No
Encoded date                   : UTC 2021-09-10 05:43:11
Tagged date                    : UTC 2021-09-10 05:43:11

Text #38
ID                             : 40
Format                         : Timed Text
Codec ID                       : tx3g
Duration                       : 1 h 46 min
Bit rate mode                  : Variable
Bit rate                       : 256 b/s
Stream size                    : 201 KiB (0%)
Title                          : Thai
Language                       : Thai
Forced                         : No
Encoded date                   : UTC 2021-09-10 05:43:11
Tagged date                    : UTC 2021-09-10 05:43:11

Text #39
ID                             : 41
Format                         : Timed Text
Codec ID                       : tx3g
Duration                       : 1 h 46 min
Bit rate mode                  : Variable
Bit rate                       : 111 b/s
Stream size                    : 87.3 KiB (0%)
Title                          : Turkish
Language                       : Turkish
Forced                         : No
Encoded date                   : UTC 2021-09-10 05:43:11
Tagged date                    : UTC 2021-09-10 05:43:11

Text #40
ID                             : 42
Format                         : Timed Text
Codec ID                       : tx3g
Duration                       : 1 h 46 min
Bit rate mode                  : Variable
Bit rate                       : 155 b/s
Stream size                    : 121 KiB (0%)
Title                          : Ukrainian
Language                       : Ukrainian
Forced                         : No
Encoded date                   : UTC 2021-09-10 05:43:11
Tagged date                    : UTC 2021-09-10 05:43:11

Text #41
ID                             : 43
Format                         : Timed Text
Codec ID                       : tx3g
Duration                       : 1 h 46 min
Bit rate mode                  : Variable
Bit rate                       : 138 b/s
Stream size                    : 108 KiB (0%)
Title                          : Vietnamese
Language                       : Vietnamese
Forced                         : No
Encoded date                   : UTC 2021-09-10 05:43:11
Tagged date                    : UTC 2021-09-10 05:43:11

下载地址

游客,如果您要查看本帖隐藏内容请回复

游客,如果您要查看本帖隐藏内容请回复

游客,如果您要查看本帖隐藏内容请回复

游客,如果您要查看本帖隐藏内容请回复




上一篇:[首发] 接住子弹 / Catch The Bullet (2021) 4K高清版本下载/12.73GB
下一篇:致命感应 / Malignant (2021) 4K高清版本下载/14.23GB
回复

使用道具 举报

48

主题

1481

帖子

4265

积分

4K家园VIP

Rank: 9Rank: 9Rank: 9

积分
4265
发表于 2021-9-10 15:07:17 来自手机 | 显示全部楼层
好帖必须得顶起
回复 支持 反对

使用道具 举报

39

主题

1379

帖子

3899

积分

4K家园VIP

Rank: 9Rank: 9Rank: 9

积分
3899
发表于 2021-9-10 15:07:17 | 显示全部楼层
不错 支持一个了
回复 支持 反对

使用道具 举报

0

主题

11

帖子

159

积分

新手上路

Rank: 1

积分
159
发表于 2021-9-10 21:16:42 | 显示全部楼层
支持一个
回复

使用道具 举报

2

主题

80

帖子

941

积分

4K家园VIP

Rank: 9Rank: 9Rank: 9

积分
941
发表于 2021-9-12 22:39:36 | 显示全部楼层
没有字幕差评
回复 支持 反对

使用道具 举报

2

主题

1279

帖子

3671

积分

4K家园VIP

Rank: 9Rank: 9Rank: 9

积分
3671
发表于 7 天前 | 显示全部楼层
大人,此事必有蹊跷!
回复 支持 反对

使用道具 举报

4

主题

1176

帖子

3556

积分

4K家园VIP

Rank: 9Rank: 9Rank: 9

积分
3556
发表于 6 天前 | 显示全部楼层
体验下4K版的
回复 支持 反对

使用道具 举报

3

主题

1281

帖子

3863

积分

4K家园VIP

Rank: 9Rank: 9Rank: 9

积分
3863
发表于 6 天前 来自手机 | 显示全部楼层
前排支持下了哦~
回复 支持 反对

使用道具 举报

0

主题

2

帖子

12

积分

新手上路

Rank: 1

积分
12
发表于 6 天前 来自手机 | 显示全部楼层
多谢分享
回复

使用道具 举报

0

主题

5

帖子

37

积分

新手上路

Rank: 1

积分
37
发表于 5 天前 | 显示全部楼层
感谢分享!!!
回复

使用道具 举报

您需要登录后才可以回帖 登录 | 立即注册

本版积分规则

精彩图文
Archiver|手机版|TAG|Sitemap|新帖|专题|联系我们:邮箱: 4kjia.com@gmail.com   

4k家园   ©2019