[4K电影] 致命感应 / Malignant (2021) 4K高清版本下载/14.23GB

[复制链接]

14

主题

1164

帖子

3482

积分

4K家园VIP

Rank: 9Rank: 9Rank: 9

积分
3482
 楼主| 发表于 2021-9-10 17:30:23 | 显示全部楼层 |阅读模式
本帖最后由 最爱4K哟 于 2021-9-10 17:37 编辑

QQ图片20210910172054_副本.png

◎译  名 致命感应 / 恶煞(港) / 疾厄(台) / 肿瘤侠 / 恶毒 / 恶性 / 肿瘤 / Malignant Man
◎片  名 Malignant
◎年  代 2021
◎产  地 美国
◎类  别 惊悚 / 恐怖
◎语  言 英语
◎上映日期 2021-09-01(法国) / 2021-09-10(美国)
◎IMDb评分  6.7/10 from 2331 users
◎IMDb链接  https://www.imdb.com/title/tt3811906/
◎豆瓣评分 0/10 from 0 users
◎豆瓣链接 https://movie.douban.com/subject/25909236/
◎片  长 111 分钟
◎导  演 温子仁
◎编  剧 阿克拉·库珀 / 温子仁 / 英格丽·比苏
◎主  演   安娜贝拉·沃丽丝
                   麦肯娜·格瑞丝
                   杰克·阿贝尔
                  麦蒂·哈森
                  杰奎琳·麦根斯
                  吴宇卫
                  米歇尔·沃特
                  乔恩·李·布罗迪
                  保拉·马绍尔
                  帕特里克·考克斯
                  英格丽·比苏
                  珍·路易莎·凯利
                  基诺·蒙特斯诺斯
                  蕾妮·戴蒙德
                  Marina Mazepa
                  Paul Mabon
                  Emir García
                  Amir AboulEla
                  Rachel Winfree


◎简  介


         麦迪森(安娜贝拉·沃丽丝 Annabelle Wallis 饰)在梦中不断看到恐怖谋杀案现场的幻象,而这些幻象实际上是真实发生过的凶案,她决定挖掘真相和自己的过去,却发现这一切与一位名叫“盖博瑞”的魔鬼有关。
General
Complete name                  : E:\4K@电影 4K@MV\Malignant.2021.2160p.HMAX.WEB-DL.DD5.1.DV.H.265-FLUX.mp4
Format                         : MPEG-4
Format profile                 : Base Media / Version 2
Codec ID                       : mp42 (isom/mp42/dby1)
File size                      : 14.2 GiB
Duration                       : 1 h 51 min
Overall bit rate mode          : Variable
Overall bit rate               : 18.2 Mb/s
Encoded date                   : UTC 2021-09-10 07:13:38
Tagged date                    : UTC 2021-09-10 07:13:38
Writing application            : GPAC-1.1.0-DEV-rev1011-ge57ff5682-master
IsTruncated                    : Yes

Video
ID                             : 1
Format                         : HEVC
Format/Info                    : High Efficiency Video Coding
Format profile                 : Main 10@L5@Main
HDR format                     : Dolby Vision, Version 1.0, dvhe.05.06, BL+RPU
Codec ID                       : dvhe
Codec ID/Info                  : High Efficiency Video Coding with Dolby Vision
Duration                       : 1 h 51 min
Bit rate                       : 17.9 Mb/s
Width                          : 3 840 pixels
Height                         : 2 160 pixels
Display aspect ratio           : 16:9
Frame rate mode                : Constant
Frame rate                     : 23.976 (24000/1001) FPS
Color space                    : YUV
Chroma subsampling             : 4:2:0
Bit depth                      : 10 bits
Bits/(Pixel*Frame)             : 0.090
Stream size                    : 13.9 GiB (98%)
Writing library                : x265 3.4hy:[Linux][GCC 7.5.0][64 bit] 10bit
Encoding settings              : cpuid=1111039 / frame-threads=6 / no-wpp / no-pmode / no-pme / no-psnr / no-ssim / log-level=2 / input-csp=1 / input-res=3840x2160 / interlace=0 / total-frames=0 / level-idc=0 / high-tier=1 / uhd-bd=0 / ref=4 / no-allow-non-conformance / repeat-headers / annexb / aud / hrd / info / hash=0 / no-temporal-layers / no-open-gop / min-keyint=96 / keyint=96 / gop-lookahead=0 / bframes=4 / b-adapt=2 / b-pyramid / bframe-bias=0 / rc-lookahead=25 / lookahead-slices=4 / scenecut=40 / hist-scenecut=0 / radl=0 / no-splice / no-intra-refresh / ctu=64 / min-cu-size=8 / rect / no-amp / max-tu-size=32 / tu-inter-depth=1 / tu-intra-depth=1 / limit-tu=0 / rdoq-level=2 / dynamic-rd=0.00 / no-ssim-rd / signhide / no-tskip / nr-intra=0 / nr-inter=0 / no-constrained-intra / strong-intra-smoothing / max-merge=3 / limit-refs=3 / limit-modes / me=3 / subme=3 / merange=57 / temporal-mvp / no-frame-dup / no-hme / weightp / no-weightb / no-analyze-src-pics / deblock=0:0 / sao / no-sao-non-deblock / rd=4 / selective-sao=4 / no-early-skip / rskip / no-fast-intra / no-tskip-fast / no-cu-lossless / no-b-intra / no-splitrd-skip / rdpenalty=0 / psy-rd=2.00 / psy-rdoq=1.00 / no-rd-refine / no-lossless / cbqpoffs=0 / crqpoffs=3 / rc=abr / bitrate=18000 / qcomp=0.60 / qpstep=4 / stats-write=0 / stats-read=2 / cplxblur=20.0 / qblur=0.5 / vbv-maxrate=24500 / vbv-bufsize=24500 / vbv-init=0.6 / vbv-end=0.6 / vbv-end-fr-adj=0.0 / ipratio=1.40 / pbratio=1.30 / aq-mode=2 / aq-strength=1.00 / cutree / zone-count=0 / no-strict-cbr / qg-size=32 / no-rc-grain / qpmax=69 / qpmin=0 / no-const-vbv / sar=1 / overscan=0 / videoformat=5 / range=1 / colorprim=2 / transfer=2 / colormatrix=2 / chromaloc=0 / display-window=0 / cll=0,0 / min-luma=0 / max-luma=1023 / log2-max-poc-lsb=8 / vui-timing-info / vui-hrd-info / no-concatenation / slices=1 / no-opt-qp-pps / no-opt-ref-list-length-pps / no-multi-pass-opt-rps / scenecut-bias=0.05 / hist-threshold=0.01 / no-opt-cu-delta-qp / no-aq-motion / no-hdr10 / no-hdr10-opt / no-dhdr10-opt / no-idr-recovery-sei / analysis-reuse-level=0 / analysis-save-reuse-level=0 / analysis-load-reuse-level=0 / scale-factor=0 / refine-intra=0 / refine-inter=0 / refine-mv=1 / refine-ctu-distortion=0 / no-limit-sao / ctu-info=0 / no-lowpass-dct / refine-analysis-type=0 / copy-pic=1 / max-ausize-factor=1.0 / no-dynamic-refine / no-single-sei / no-hevc-aq / no-svt / no-field / qp-adaptation-range=1.00 / no-scenecut-aware-qpconformance-window-offsets / right=0 / bottom=0 / decoder-max-rate=0
Default                        : Yes
Alternate group                : 1
Encoded date                   : UTC 2021-09-10 07:06:59
Tagged date                    : UTC 2021-09-10 07:13:56
Color range                    : Full
Codec configuration box        : hvcC+dvcC

Audio
ID                             : 2
Format                         : AC-3
Format/Info                    : Audio Coding 3
Commercial name                : Dolby Digital
Codec ID                       : ac-3
Duration                       : 1 h 51 min
Bit rate mode                  : Constant
Bit rate                       : 384 kb/s
Maximum bit rate               : 406 kb/s
Channel(s)                     : 6 channels
Channel layout                 : L R C LFE Ls Rs
Sampling rate                  : 48.0 kHz
Frame rate                     : 31.250 FPS (1536 SPF)
Compression mode               : Lossy
Stream size                    : 306 MiB (2%)
Title                          : English
Language                       : English
Service kind                   : Complete Main
Encoded date                   : UTC 2021-09-10 07:01:06
Tagged date                    : UTC 2021-09-10 07:13:56

Text #1
ID                             : 3
Format                         : Timed Text
Codec ID                       : tx3g
Duration                       : 1 h 47 min
Bit rate mode                  : Variable
Bit rate                       : 52 b/s
Stream size                    : 40.7 KiB (0%)
Title                          : English
Language                       : English
Forced                         : No
Encoded date                   : UTC 2021-09-10 07:13:55
Tagged date                    : UTC 2021-09-10 07:13:56

Text #2
ID                             : 4
Format                         : Timed Text
Codec ID                       : tx3g
Duration                       : 1 h 47 min
Bit rate mode                  : Variable
Bit rate                       : 50 b/s
Stream size                    : 39.5 KiB (0%)
Title                          : Español
Language                       : Spanish
Forced                         : No
Encoded date                   : UTC 2021-09-10 07:13:55
Tagged date                    : UTC 2021-09-10 07:13:56


下载地址

致命感应(14.23GB)Malignant.2021.2160p.HMAX.WEB-DL.x265.10bit.HDR.DD5.1-CM.torrent (18.42 KB, 售价: 9 金币)

上一篇:来自远方 (内封中字)/ Come from Away (2021) 4K高清版本下载/18.98GB
下一篇:拆弹部队 / The Hurt Locker (2008) 4K高清版本下载/14.02GB
回复

使用道具 举报

0

主题

1248

帖子

3764

积分

4K家园VIP

Rank: 9Rank: 9Rank: 9

积分
3764
发表于 2021-9-10 17:30:27 | 显示全部楼层
额.....这个可以有
回复 支持 反对

使用道具 举报

0

主题

19

帖子

185

积分

新手上路

Rank: 1

积分
185
发表于 2021-9-10 20:07:17 | 显示全部楼层
终于等到这部电影的资源了,希望不会让人失望!
回复 支持 反对

使用道具 举报

2

主题

1351

帖子

3873

积分

4K家园VIP

Rank: 9Rank: 9Rank: 9

积分
3873
发表于 2021-9-10 23:01:05 | 显示全部楼层
回个帖子,下班咯~
回复 支持 反对

使用道具 举报

0

主题

2

帖子

50

积分

4K家园VIP

Rank: 9Rank: 9Rank: 9

积分
50
发表于 2021-9-10 23:10:22 | 显示全部楼层
有字幕就好了
回复 支持 反对

使用道具 举报

1

主题

1616

帖子

4504

积分

4K家园VIP

Rank: 9Rank: 9Rank: 9

积分
4504
发表于 2021-9-11 00:02:44 | 显示全部楼层
锄禾日当午,发帖真辛苦。谁知坛中餐,帖帖皆辛苦!
回复 支持 反对

使用道具 举报

48

主题

1458

帖子

4178

积分

4K家园VIP

Rank: 9Rank: 9Rank: 9

积分
4178
发表于 2021-9-11 00:11:37 | 显示全部楼层
秀起来~
回复 支持 反对

使用道具 举报

0

主题

8

帖子

26

积分

新手上路

Rank: 1

积分
26
发表于 2021-9-11 02:19:02 | 显示全部楼层
积分快快来
回复 支持 反对

使用道具 举报

1

主题

1266

帖子

3682

积分

4K家园VIP

Rank: 9Rank: 9Rank: 9

积分
3682
发表于 2021-9-11 05:53:18 | 显示全部楼层
LZ敢整点更有创意的不?兄弟们等着围观捏~
回复 支持 反对

使用道具 举报

0

主题

135

帖子

822

积分

新手上路

Rank: 1

积分
822
发表于 2021-9-11 12:36:54 | 显示全部楼层
非常感谢楼主分享
回复 支持 反对

使用道具 举报

您需要登录后才可以回帖 登录 | 立即注册

本版积分规则

精彩图文
Archiver|手机版|TAG|Sitemap|新帖|专题|联系我们:邮箱: 4kjia.com@gmail.com   

4k家园   ©2019