[4K电影] 拆弹部队 / The Hurt Locker (2008) 4K高清版本下载/14.02GB

[复制链接]

872

主题

927

帖子

7961

积分

超级版主

Rank: 8Rank: 8

积分
7961
 楼主| 发表于 2021-9-11 17:47:37 | 显示全部楼层 |阅读模式
本帖最后由 最爱4K哟 于 2021-9-13 10:22 编辑

QQ图片20210911174000_副本.png

◎译  名 拆弹部队/危机倒数(台)/反恐防暴部队/拆弹雄心(港)
◎片  名 The Hurt Locker
◎年  代 2008
◎产  地 美国
◎类  别 剧情 / 惊悚 / 战争
◎语  言 英语
◎上映日期 2008-09-04(威尼斯电影节) / 2009-07-31(美国)
◎IMDb评分  7.5/10 from 433622 users
◎IMDb链接  https://www.imdb.com/title/tt0887912/
◎豆瓣评分 7.8/10 from 160380 users
◎豆瓣链接 https://movie.douban.com/subject/2028645/
◎片  长 131 分钟
◎导  演 凯瑟琳·毕格罗 Kathryn Bigelow
◎编  剧 马克·鲍尔 Mark Boal
◎主  演 杰瑞米·雷纳 Jeremy Renner
      安东尼·麦凯 Anthony Mackie
      布莱恩·格拉格提 Brian Geraghty
      克里斯托弗·沙耶 Christopher Sayegh
      大卫·摩斯 David Morse
      拉尔夫·费因斯 Ralph Fiennes
      盖·皮尔斯 Guy Pearce
      克里斯蒂安·卡玛戈 Christian Camargo
      伊万杰琳·莉莉 Evangeline Lilly
      萨姆·斯普卢尔 Sam Spruell
      苏黑尔·达巴赫 Suhail Dabbach



◎简  介

  美军侵入伊拉克后,上士威廉姆斯?詹姆斯(杰瑞米?雷纳 Jeremy Renner 饰)被调入陆军亡命连拆弹组,接替刚在巴格达执行任务中牺牲的同事。拆弹组另两人,负责联络的士官桑波恩(安东尼?麦凯 Anthony Mackie 饰)和负责掩护的特种兵欧文(布莱恩?杰拉蒂 Brian Geraghty 饰)对意气用事的威廉姆斯相当反感。但在联合国大楼的拆弹行动中,抗拒命令强行拆弹的威廉姆斯却得到上校瑞德(大卫?莫尔斯 David Morse 饰)的赞赏。在一次仓库拆弹任务中,威廉姆斯认为被用作尸体炸弹的伊拉克小男孩是他在军营认识的卖盗版DVD的贝克汉姆(克里斯托佛?萨伊 Christopher Sayegh 饰)。小贝克汉姆的死让威廉姆斯更为疯狂,竟私离军营单枪匹马入城调查……

  本片荣获2010年第82届奥斯卡最佳影片、最佳导演、最佳原创剧本、最佳剪辑、最佳音效剪辑、最佳音响效果等6项大奖。

◎获奖情况

  第82届奥斯卡金像奖 ?(2010)
  最佳影片 尼古拉斯·查蒂尔?/?格雷格·夏皮罗?/?凯瑟琳·毕格罗?/?马克·鲍尔
  最佳导演 凯瑟琳·毕格罗
  最佳男主角(提名) 杰瑞米·雷纳
  最佳原创剧本 马克·鲍尔
  最佳摄影(提名) 巴里·埃克劳德
  最佳剪辑 鲍勃·穆拉夫斯基?/?克里斯·因尼斯
  最佳混音 保罗·奥特森?/?雷·贝凯特
  最佳音效剪辑 保罗·奥特森
  最佳原创配乐(提名) 马可·贝尔崔米?/?巴克·桑德斯

  第66届威尼斯电影节 ?(2009)
  古驰奖 马克·鲍尔

  第65届威尼斯电影节 ?(2008)
  金狮奖(提名) 凯瑟琳·毕格罗
  天主教文化奖 凯瑟琳·毕格罗
  青年电影奖最佳电影 凯瑟琳·毕格罗
  人权电影网络奖 凯瑟琳·毕格罗
  SergioTrasattiAward 凯瑟琳·毕格罗

  第67届金球奖 ?(2010)
  电影类最佳剧情片(提名)
  电影类最佳导演(提名) 凯瑟琳·毕格罗
  电影类最佳编剧(提名) 马克·鲍尔

  第34届日本电影学院奖 ?(2011)
  最佳外语片(提名)

  第75届纽约影评人协会奖 ?(2009)
  最佳影片
  最佳导演 凯瑟琳·毕格罗
  最佳男主角(提名) 杰瑞米·雷纳

  第10届美国电影学会奖 ?(2009)
  年度佳片

  第8届华盛顿影评人协会奖 ?(2009)
  最佳影片(提名)
  最佳导演 凯瑟琳·毕格罗
  最佳男主角(提名) 杰瑞米·雷纳
  最佳男配角(提名) 安东尼·麦凯
  最佳原创剧本(提名) 马克·鲍尔
  最佳群戏
  最佳突破表演(提名) 杰瑞米·雷纳

  第14届圣地亚哥影评人协会奖 ?(2009)
  最佳导演(提名) 凯瑟琳·毕格罗
  最佳男主角(提名) 杰瑞米·雷纳

  第22届芝加哥影评人协会奖 ?(2009)
  最佳影片
  最佳导演 凯瑟琳·毕格罗
  最佳男主角 杰瑞米·雷纳
  最佳原创剧本 马克·鲍尔
  最佳摄影 巴里·埃克劳德

  第43届堪萨斯影评人协会奖 ?(2010)
  最佳导演(提名) 凯瑟琳·毕格罗

  第18届东南影评人协会奖 ?(2009)
  最佳影片(提名)
  最佳导演 凯瑟琳·毕格罗
  最佳男主角(提名) 杰瑞米·雷纳
  最佳原创剧本(提名) 马克·鲍尔

  第12届美国青少年选择奖 ?(2010)
  最佳剧情片男演员(提名) 杰瑞米·雷纳
Video
ID : 1
Format : HEVC
Format/Info : High Efficiency Video Coding
Format profile : Main 10@L5@Main
HDR format : SMPTE ST 2094 App 4, Version 1, HDR10+ Profile B compatible
Codec ID : V_MPEGH/ISO/HEVC
Duration : 2 h 10 min
Bit rate : 14.7 Mb/s
Width : 3 840 pixels
Height : 2 080 pixels
Display aspect ratio : 1.85:1
Frame rate mode : Constant
Frame rate : 23.976 (24000/1001/189150) FPS
Color space : YUV
Chroma subsampling : 4:2:0
Bit depth : 10 bits
Bits/(Pixel*Frame) : 0.077
Stream size : 13.4 GiB (96%)
Language : English
Default : Yes
Forced : No
Color range : Limited
Color primaries : BT.2020
Transfer characteristics : PQ
Matrix coefficients : BT.2020 non-constant
Mastering display color primaries : Display P3
Mastering display luminance : min: 0.0050 cd/m2, max: 1000 cd/m2
Maximum Content Light Level : 999 cd/m2
Maximum Frame-Average Light Level : 502 cd/m2

Audio
ID : 2
Format : E-AC-3
Format/Info : Enhanced AC-3
Commercial name : Dolby Digital Plus
Codec ID : A_EAC3
Duration : 2 h 10 min
Bit rate mode : Constant
Bit rate : 640 kb/s
Channel(s) : 6 channels
Channel layout : L R C LFE Ls Rs
Sampling rate : 48.0 kHz
Frame rate : 31.250 FPS (1536 SPF)
Compression mode : Lossy
Stream size : 598 MiB (4%)
Title : DDP 5.1
Language : English
Service kind : Complete Main
Default : No
Forced : No

Text
ID : 3
Format : UTF-8
Codec ID : S_TEXT/UTF8
Codec ID/Info : UTF-8 Plain Text
Duration : 2 h 4 min
Bit rate : 47 b/s
Count of elements : 1545
Stream size : 43.1 KiB (0%)
Title : SDH
Language : English
Default : No
Forced : No

Menu
00:00:00.000 : Studio Logo
00:00:32.000 : Studio Logos
00:00:36.000 : Robot and Soldiers Arrive
00:02:02.000 : Sanborn and Thompson Attempt to Defuse a Bomb
00:06:11.000 : Thompson Attempts to Defuse the Bomb Manually
00:10:09.000 : Sanborn Packs the Belongings of a Fallen Comrade
00:11:04.000 : Sanborn Introduces Himself to James
00:12:33.000 : Owen and Sanborn Talk Iraq
00:13:40.000 : Team Tries to Find Missing Unit
00:16:41.000 : James Approaches the Bomb
00:19:09.000 : A Car Creates a Tense Situation
00:22:18.000 : James Attempts to Disable the IED
00:26:58.000 : Sanborn Confronts James
00:27:35.000 : Eldridge Plays Video Games and Gets a Visitor
00:28:45.000 : James Buys a DVD From a Kid
00:29:34.000 : Sanborn Confronts James About his Cowboy Attitude
00:30:30.000 : The Unit Responds to a Bomb Threat
00:31:16.000 : An Unexpected Person Appears
00:33:46.000 : Col. Reed Declares the Shooter's Condition
00:34:24.000 : James Breaks Protocol
00:38:04.000 : An Observer Creates Tension
00:40:52.000 : James Continues to Work
00:43:53.000 : Col. Reed Complements James
00:45:09.000 : James Bonds with Beckham
00:47:20.000 : Eldridge Challenges his Psychiatrist
00:48:52.000 : Sanborn Plays With Fire
00:50:56.000 : The Unit Runs into a Group of Men
00:53:56.000 : Group Has Company
00:57:29.000 : Sanborns Needs Ammo
01:02:05.000 : Sanborn Faces Off
01:04:02.000 : Unit Waits it Out
01:06:47.000 : Eldridge Watches Goats on a Bridge
01:09:13.000 : The Unit Lets Off Steam
01:15:04.000 : James Puts Sanborn to Bed
01:16:30.000 : Dr. Cambridge Requests a Ride Along
01:17:20.000 : Unit Prepares to Address a Threat
01:17:48.000 : The Unit Inspects an Abandoned Warehouse
01:21:12.000 : James Finds Something
01:22:23.000 : James Deals with the Situation
01:26:26.000 : Cambridge Tries to Clear the Crowd
01:29:09.000 : James Calls Connie
01:29:56.000 : James Questions the DVD Merchant
01:32:07.000 : James Looks for Beckham's House
01:35:21.000 : James Tries to Reenter Base
01:37:01.000 : James Gets Called to Do an Assessment
01:38:07.000 : Sanborn and James Inspect the Aftermath
01:41:00.000 : James and Sanborn Speculate
01:43:45.000 : The Team Splits up
01:47:31.000 : James Showers in his Clothing
01:48:41.000 : A Friend Resurfaces
01:49:16.000 : Eldridge Is Airlifted
01:50:23.000 : A Man Needs Help
01:52:28.000 : James Moves In
01:56:06.000 : James Has News for the Man
01:57:35.000 : Sanborn Talks to James
02:01:10.000 : James Shops for Groceries
02:02:34.000 : James Talks to Connie
02:03:35.000 : James Gives an Emotional Speech
02:04:50.000 : James Touches Down
02:06:12.000 : End Credits

迅雷下载资源速度为零,资源敏感或被和谐时,推荐使用qBittorrent等无限速下载软件,有条件的推荐115更好的下载软件!



下载地址
拆弹部队(14.02GB)The.Hurt.Locker.2008.2160p.AMZN.WEB-DL.x265.10bit.HDR10Plus.D.torrent (18.2 KB, 售价: 9 金币)

上一篇:致命感应 / Malignant (2021) 4K高清版本下载/14.23GB
下一篇:2019纪录片《大猫的秘密生活》全7集/4K高清下载/44.37GB
回复

使用道具 举报

51

主题

1357

帖子

3903

积分

4K家园VIP

Rank: 9Rank: 9Rank: 9

积分
3903
发表于 2021-9-11 17:47:50 | 显示全部楼层
4K电影下个试试
回复 支持 反对

使用道具 举报

0

主题

1643

帖子

4537

积分

4K家园VIP

Rank: 9Rank: 9Rank: 9

积分
4537
发表于 2021-9-11 20:56:21 | 显示全部楼层
无论是不是沙发都得回复下
回复 支持 反对

使用道具 举报

1

主题

1348

帖子

3880

积分

4K家园VIP

Rank: 9Rank: 9Rank: 9

积分
3880
发表于 2021-9-11 21:29:05 来自手机 | 显示全部楼层
我了个去,顶了
回复 支持 反对

使用道具 举报

0

主题

1299

帖子

3719

积分

4K家园VIP

Rank: 9Rank: 9Rank: 9

积分
3719
发表于 2021-9-11 22:54:42 | 显示全部楼层
前排支持下了哦~
回复 支持 反对

使用道具 举报

34

主题

1497

帖子

4201

积分

4K家园VIP

Rank: 9Rank: 9Rank: 9

积分
4201
发表于 2021-9-11 23:23:09 | 显示全部楼层
我是个凑数的。。。
回复 支持 反对

使用道具 举报

0

主题

135

帖子

822

积分

新手上路

Rank: 1

积分
822
发表于 2021-9-12 13:07:35 | 显示全部楼层
谢谢楼主分享
回复 支持 反对

使用道具 举报

您需要登录后才可以回帖 登录 | 立即注册

本版积分规则

精彩图文
Archiver|手机版|TAG|Sitemap|新帖|专题|联系我们:邮箱: 4kjia.com@gmail.com   

4k家园   ©2019