[4K电影] 2019纪录片《大猫的秘密生活》全7集/4K高清下载/44.37GB

[复制链接]

2567

主题

2891

帖子

2万

积分

超级版主

Rank: 8Rank: 8

积分
24049
 楼主| 发表于 2021-9-21 10:32:13 | 显示全部楼层 |阅读模式
本帖最后由 叽里呱啦 于 2021-9-21 10:32 编辑

5c54ba2c-7d06-4db4-aff6-e837e28f0ba4.png


图片发行年份:2019 年
国家:英国
类型:自然、动物
持续时间:~ 00: 30: 00
字幕:英语

导演:马丁·多恩

简介:

       七个半小时的剧集,观看最神秘的野外掠食者。使用热像仪进行夜间拍摄很多。第一集是关于老虎的,然后是关于雪豹、美洲狮、狮子、豹子、美洲虎和猎豹的剧集。



MediaInfo

General
Complete name                            : S:\The.Secret.Lives.of.Big.Cats.2019.S01E01.2160p.WEBRip.Rus.Eng.mkv
Format                                   : Matroska
Format version                           : Version 4
File size                                : 7.78 GiB
Duration                                 : 35 min 44 s
Overall bit rate                         : 31.1 Mb/s
Movie name                               : The Secret Lives Of Big Cats - S01E01 - Tigers [2019]
Encoded date                             : UTC 2021-08-30 11:08:24
Writing application                      : mkvmerge v56.1.0 ('My Friend') 64-bit
Writing library                          : libebml v1.4.2 + libmatroska v1.6.4
Cover                                    : Yes
Attachments                              : cover_land.jpg

Video
ID                                       : 1
Format                                   : AVC
Format/Info                              : Advanced Video Codec
Format profile                           : High@L5.1
Format settings                          : CABAC / 5 Ref Frames
Format settings, CABAC                   : Yes
Format settings, Reference frames        : 5 frames
Codec ID                                 : V_MPEG4/ISO/AVC
Duration                                 : 35 min 44 s
Bit rate                                 : 30.6 Mb/s
Width                                    : 3 840 pixels
Height                                   : 2 160 pixels
Display aspect ratio                     : 16:9
Frame rate mode                          : Constant
Frame rate                               : 23.976 (24000/1001) FPS
Color space                              : YUV
Chroma subsampling                       : 4:2:0
Bit depth                                : 8 bits
Scan type                                : Progressive
Bits/(Pixel*Frame)                       : 0.154
Stream size                              : 7.65 GiB (98%)
Writing library                          : x264 core 157 r2969 d4099dd
Encoding settings                        : cabac=1 / ref=5 / deblock=1:-2:-2 / analyse=0x3:0x113 / me=umh / subme=8 / psy=1 / psy_rd=1.00:0.00 / mixed_ref=1 / me_range=16 / chroma_me=1 / trellis=2 / 8x8dct=1 / cqm=0 / deadzone=21,11 / fast_pskip=1 / chroma_qp_offset=-2 / threads=18 / lookahead_threads=3 / sliced_threads=0 / nr=0 / decimate=1 / interlaced=0 / bluray_compat=0 / constrained_intra=0 / bframes=3 / b_pyramid=2 / b_adapt=1 / b_bias=0 / direct=3 / weightb=1 / open_gop=0 / weightp=2 / keyint=250 / keyint_min=23 / scenecut=40 / intra_refresh=0 / rc_lookahead=50 / rc=crf / mbtree=1 / crf=18.0 / qcomp=0.60 / qpmin=0 / qpmax=69 / qpstep=4 / ip_ratio=1.40 / aq=1:1.00
Language                                 : English
Default                                  : Yes
Forced                                   : No

Audio #1
ID                                       : 2
Format                                   : AAC LC
Format/Info                              : Advanced Audio Codec Low Complexity
Codec ID                                 : A_AAC-2
Duration                                 : 35 min 44 s
Bit rate                                 : 128 kb/s
Channel(s)                               : 2 channels
Channel layout                           : L R
Sampling rate                            : 44.1 kHz
Frame rate                               : 43.066 FPS (1024 SPF)
Compression mode                         : Lossy
Stream size                              : 32.7 MiB (0%)
Title                                    : Хорлин Александр
Language                                 : Russian
Default                                  : Yes
Forced                                   : No

Audio #2
ID                                       : 3
Format                                   : AC-3
Format/Info                              : Audio Coding 3
Commercial name                          : Dolby Digital
Codec ID                                 : A_AC3
Duration                                 : 35 min 40 s
Bit rate mode                            : Constant
Bit rate                                 : 384 kb/s
Channel(s)                               : 2 channels
Channel layout                           : L R
Sampling rate                            : 48.0 kHz
Frame rate                               : 31.250 FPS (1536 SPF)
Compression mode                         : Lossy
Stream size                              : 98.0 MiB (1%)
Language                                 : English
Service kind                             : Complete Main
Default                                  : No
Forced                                   : No

Text
ID                                       : 4
Format                                   : UTF-8
Codec ID                                 : S_TEXT/UTF8
Codec ID/Info                            : UTF-8 Plain Text
Duration                                 : 34 min 49 s
Bit rate                                 : 66 b/s
Count of elements                        : 464
Stream size                              : 16.9 KiB (0%)
Language                                 : English
Default                                  : No
Forced                                   : No

下载链接:

****此区域为收费内容****    需支付 30 金币后可查看立即购买





上一篇:拆弹部队 / The Hurt Locker (2008) 4K高清版本下载/14.02GB
下一篇:凯特(内封中字) / Kate (2021) 4K高清版本下载/12.66GB
回复

使用道具 举报

2567

主题

2891

帖子

2万

积分

超级版主

Rank: 8Rank: 8

积分
24049
 楼主| 发表于 2021-9-21 10:32:14 | 显示全部楼层
The.Secret.Lives.of.Big.Cats.2019.S01E01.2160p.WEBRip.Rus.Eng.mkv_20210911_182714.780.jpg The.Secret.Lives.of.Big.Cats.2019.S01E01.2160p.WEBRip.Rus.Eng.mkv_20210911_182724.587.jpg The.Secret.Lives.of.Big.Cats.2019.S01E04.2160p.WEBRip.Rus.Eng.mkv_20210911_182848.299.jpg The.Secret.Lives.of.Big.Cats.2019.S01E04.2160p.WEBRip.Rus.Eng.mkv_20210911_182949.499.jpg The.Secret.Lives.of.Big.Cats.2019.S01E06.2160p.WEBRip.Rus.Eng.mkv_20210911_182752.803.jpg The.Secret.Lives.of.Big.Cats.2019.S01E06.2160p.WEBRip.Rus.Eng.mkv_20210911_182818.940.jpg
回复 支持 反对

使用道具 举报

0

主题

4

帖子

888

积分

4K家园VIP

Rank: 9Rank: 9Rank: 9

积分
888
发表于 2021-9-21 10:55:20 | 显示全部楼层
非常精彩的动物纪录片,谢谢分享!
回复 支持 反对

使用道具 举报

1

主题

43

帖子

5591

积分

4K家园VIP

Rank: 9Rank: 9Rank: 9

积分
5591
发表于 2021-9-21 13:43:10 | 显示全部楼层
不错不错。收藏了给孩子看看。挺好的
希望楼主多发一些纪录片。
回复 支持 反对

使用道具 举报

0

主题

1281

帖子

3867

积分

4K家园VIP

Rank: 9Rank: 9Rank: 9

积分
3867
发表于 2021-9-21 21:29:01 | 显示全部楼层
额.....这个可以有
回复 支持 反对

使用道具 举报

0

主题

1290

帖子

3886

积分

4K家园VIP

Rank: 9Rank: 9Rank: 9

积分
3886
发表于 2021-9-21 23:02:16 | 显示全部楼层
试试先,好用再说
回复 支持 反对

使用道具 举报

62

主题

1537

帖子

4445

积分

4K家园VIP

Rank: 9Rank: 9Rank: 9

积分
4445
发表于 2021-9-22 01:31:30 来自手机 | 显示全部楼层
好像还可以
回复 支持 反对

使用道具 举报

0

主题

18

帖子

168

积分

4K家园VIP

Rank: 9Rank: 9Rank: 9

积分
168
发表于 2021-9-22 07:58:57 | 显示全部楼层
这个有中文字幕吗?
回复 支持 反对

使用道具 举报

0

主题

30

帖子

1043

积分

4K家园VIP

Rank: 9Rank: 9Rank: 9

积分
1043
发表于 2021-9-22 08:16:34 | 显示全部楼层
喜欢纪录片,谢谢楼主。
回复 支持 反对

使用道具 举报

58

主题

1509

帖子

4337

积分

4K家园VIP

Rank: 9Rank: 9Rank: 9

积分
4337
发表于 2021-9-22 09:46:42 | 显示全部楼层
试试先,好用再说
回复 支持 反对

使用道具 举报

您需要登录后才可以回帖 登录 | 立即注册

本版积分规则

精彩图文
Archiver|手机版|TAG|Sitemap|新帖|专题|联系我们:邮箱: 4kjia.com@gmail.com   

4k家园   ©2019