[4K MV] 2020 CRAVITY - Ohh Ahh (Performance Video) 4k [2160P/MP4/413MB]

[复制链接]

2566

主题

2890

帖子

2万

积分

超级版主

Rank: 8Rank: 8

积分
24032
 楼主| 发表于 2021-9-16 21:49:01 | 显示全部楼层 |阅读模式
本帖最后由 叽里呱啦 于 2021-9-12 14:32 编辑

CRAVITY - Ohh Ahh (Performance Video) 4k.mp4_20210912_131916.146.jpg CRAVITY - Ohh Ahh (Performance Video) 4k.mp4_20210912_131922.315.jpg CRAVITY - Ohh Ahh (Performance Video) 4k.mp4_20210912_131927.530.jpg CRAVITY - Ohh Ahh (Performance Video) 4k.mp4_20210912_131932.705.jpg CRAVITY - Ohh Ahh (Performance Video) 4k.mp4_20210912_131938.970.jpg CRAVITY - Ohh Ahh (Performance Video) 4k.mp4_20210912_131951.346.jpg
General
Complete name                  : I:\BaiduNetdiskDownload\CRAVITY - Ohh Ahh (Performance Video) 4k.mp4
Format                         : MPEG-4
Format profile                 : Base Media
Codec ID                       : isom (isom/iso2/avc1/mp41)
File size                      : 413 MiB
Duration                       : 3 min 27 s
Overall bit rate               : 16.7 Mb/s
Writing application            : Lavf58.12.100
exvr                           : EX1.8.2(C1.0.9)

Video
ID                             : 1
Format                         : AVC
Format/Info                    : Advanced Video Codec
Format profile                 : High@L5.1
Format settings                : CABAC / 4 Ref Frames
Format settings, CABAC         : Yes
Format settings, Reference fra : 4 frames
Codec ID                       : avc1
Codec ID/Info                  : Advanced Video Coding
Duration                       : 3 min 27 s
Bit rate                       : 16.5 Mb/s
Width                          : 3 840 pixels
Height                         : 2 160 pixels
Display aspect ratio           : 16:9
Frame rate mode                : Constant
Frame rate                     : 23.976 (23976/1000) FPS
Color space                    : YUV
Chroma subsampling             : 4:2:0
Bit depth                      : 8 bits
Scan type                      : Progressive
Bits/(Pixel*Frame)             : 0.083
Stream size                    : 409 MiB (99%)
Color range                    : Limited
Color primaries                : BT.709
Transfer characteristics       : BT.709
Matrix coefficients            : BT.709
Codec configuration box        : avcC

Audio
ID                             : 2
Format                         : AAC LC
Format/Info                    : Advanced Audio Codec Low Complexity
Codec ID                       : mp4a-40-2
Duration                       : 3 min 27 s
Bit rate mode                  : Constant
Bit rate                       : 192 kb/s
Channel(s)                     : 2 channels
Channel layout                 : L R
Sampling rate                  : 48.0 kHz
Frame rate                     : 46.875 FPS (1024 SPF)
Compression mode               : Lossy
Stream size                    : 4.75 MiB (1%)
Default                        : Yes
Alternate group                : 1

网盘下载失效不补:链接: https://pan.baidu.com/s/1qpZHXeiqHnx-oIiJv-17eA 提取码:
****此区域为收费内容****    需支付 15 金币后可查看立即购买




上一篇:[4K MV] 2021 MIRAE - KILLA 4k [2160P/MP4/343MB]
下一篇:[4K MV] 2021 Dreamcatcher - BEcause (Dance Video) (MV ver) 4k [2160P/MP4/418MB]
回复

使用道具 举报

1

主题

1523

帖子

4411

积分

4K家园VIP

Rank: 9Rank: 9Rank: 9

积分
4411
发表于 2021-9-16 21:49:05 | 显示全部楼层
哈哈,我只看看不说话
回复 支持 反对

使用道具 举报

3

主题

1619

帖子

4425

积分

4K家园VIP

Rank: 9Rank: 9Rank: 9

积分
4425
发表于 2021-9-17 04:36:30 | 显示全部楼层
支持一下楼主发表的内容
回复 支持 反对

使用道具 举报

1

主题

1567

帖子

4307

积分

4K家园VIP

Rank: 9Rank: 9Rank: 9

积分
4307
发表于 2021-9-17 09:21:29 | 显示全部楼层
支持你哈...................................
回复 支持 反对

使用道具 举报

41

主题

1479

帖子

4235

积分

4K家园VIP

Rank: 9Rank: 9Rank: 9

积分
4235
发表于 2021-9-17 10:49:35 | 显示全部楼层
支持支持再支持
回复 支持 反对

使用道具 举报

2

主题

1625

帖子

4461

积分

4K家园VIP

Rank: 9Rank: 9Rank: 9

积分
4461
发表于 2021-9-17 20:56:27 | 显示全部楼层
向楼主学习
回复 支持 反对

使用道具 举报

0

主题

642

帖子

2238

积分

注册会员

Rank: 2

积分
2238
发表于 2021-9-26 21:07:52 | 显示全部楼层

谢谢分享资源
回复 支持 反对

使用道具 举报

0

主题

642

帖子

2238

积分

注册会员

Rank: 2

积分
2238
发表于 2021-10-11 14:00:55 | 显示全部楼层
谢谢楼主分享
回复 支持 反对

使用道具 举报

0

主题

642

帖子

2238

积分

注册会员

Rank: 2

积分
2238
发表于 前天 16:18 | 显示全部楼层

感谢楼主分享
回复 支持 反对

使用道具 举报

您需要登录后才可以回帖 登录 | 立即注册

本版积分规则

精彩图文
Archiver|手机版|TAG|Sitemap|新帖|专题|联系我们:邮箱: 4kjia.com@gmail.com   

4k家园   ©2019