[4K MV] 2021 Dreamcatcher - BEcause (Dance Video) (MV ver) 4k [2160P/MP4/418MB]

[复制链接]

2571

主题

2895

帖子

2万

积分

超级版主

Rank: 8Rank: 8

积分
24086
 楼主| 发表于 2021-9-25 22:53:52 | 显示全部楼层 |阅读模式
本帖最后由 叽里呱啦 于 2021-9-12 14:34 编辑

Dreamcatcher - BEcause (Dance Video) (MV ver.) 4k.mp4_20210912_133707.709.jpg Dreamcatcher - BEcause (Dance Video) (MV ver.) 4k.mp4_20210912_133715.915.jpg Dreamcatcher - BEcause (Dance Video) (MV ver.) 4k.mp4_20210912_133734.379.jpg Dreamcatcher - BEcause (Dance Video) (MV ver.) 4k.mp4_20210912_133740.987.jpg Dreamcatcher - BEcause (Dance Video) (MV ver.) 4k.mp4_20210912_133747.445.jpg Dreamcatcher - BEcause (Dance Video) (MV ver.) 4k.mp4_20210912_133803.901.jpg

General
Complete name                  : I:\BaiduNetdiskDownload\Dreamcatcher - BEcause (Dance Video) (MV ver.) 4k.mp4
Format                         : MPEG-4
Format profile                 : Base Media
Codec ID                       : isom (isom/iso2/avc1/mp41)
File size                      : 418 MiB
Duration                       : 3 min 14 s
Overall bit rate               : 18.1 Mb/s
Writing application            : Lavf58.12.100
exvr                           : EX1.8.2(C1.0.9)

Video
ID                             : 1
Format                         : AVC
Format/Info                    : Advanced Video Codec
Format profile                 : High@L5.1
Format settings                : CABAC / 4 Ref Frames
Format settings, CABAC         : Yes
Format settings, Reference fra : 4 frames
Format settings, GOP           : M=4, N=48
Codec ID                       : avc1
Codec ID/Info                  : Advanced Video Coding
Duration                       : 3 min 13 s
Bit rate                       : 17.9 Mb/s
Width                          : 3 840 pixels
Height                         : 2 160 pixels
Display aspect ratio           : 16:9
Frame rate mode                : Constant
Frame rate                     : 23.976 (23976/1000) FPS
Color space                    : YUV
Chroma subsampling             : 4:2:0
Bit depth                      : 8 bits
Scan type                      : Progressive
Bits/(Pixel*Frame)             : 0.090
Stream size                    : 414 MiB (99%)
Color range                    : Limited
Color primaries                : BT.709
Transfer characteristics       : BT.709
Matrix coefficients            : BT.709
Codec configuration box        : avcC

Audio
ID                             : 2
Format                         : AAC LC
Format/Info                    : Advanced Audio Codec Low Complexity
Codec ID                       : mp4a-40-2
Duration                       : 3 min 14 s
Duration_LastFrame             : -1 ms
Bit rate mode                  : Constant
Bit rate                       : 192 kb/s
Channel(s)                     : 2 channels
Channel layout                 : L R
Sampling rate                  : 48.0 kHz
Frame rate                     : 46.875 FPS (1024 SPF)
Compression mode               : Lossy
Stream size                    : 4.44 MiB (1%)
Default                        : Yes
Alternate group                : 1

网盘下载失效不补:链接: https://pan.baidu.com/s/1bbxAVkEAh5U8QAgU1ZhYjg 提取码:  
****此区域为收费内容****    需支付 15 金币后可查看立即购买






上一篇:[4K MV] 2020 CRAVITY - Ohh Ahh (Performance Video) 4k [2160P/MP4/413MB]
下一篇:[4K MV] 2021 Dreamcatcher - BOCA (Dance Video) (K-Zombie ver) 4k[2160P/MP4/371MB
回复

使用道具 举报

0

主题

1292

帖子

3874

积分

4K家园VIP

Rank: 9Rank: 9Rank: 9

积分
3874
发表于 2021-9-25 22:53:58 来自手机 | 显示全部楼层
我也是坐沙发的
回复 支持 反对

使用道具 举报

0

主题

5

帖子

22

积分

新手上路

Rank: 1

积分
22
发表于 2021-9-26 01:58:53 | 显示全部楼层
666666666666666666666666
回复 支持 反对

使用道具 举报

2

主题

191

帖子

2789

积分

注册会员

Rank: 2

积分
2789
发表于 2021-9-26 10:29:15 | 显示全部楼层
六六大顺   
回复 支持 反对

使用道具 举报

2

主题

1302

帖子

3726

积分

4K家园VIP

Rank: 9Rank: 9Rank: 9

积分
3726
发表于 2021-9-27 01:22:38 | 显示全部楼层
啊啊啊啊啊啊啊啊啊啊啊
回复 支持 反对

使用道具 举报

2

主题

1360

帖子

4098

积分

4K家园VIP

Rank: 9Rank: 9Rank: 9

积分
4098
发表于 2021-9-27 02:57:27 | 显示全部楼层
支持,楼下的跟上哈~
回复 支持 反对

使用道具 举报

0

主题

17

帖子

64

积分

新手上路

Rank: 1

积分
64
发表于 2021-9-27 14:13:01 | 显示全部楼层
没钱啊,咋办?
回复 支持 反对

使用道具 举报

41

主题

1450

帖子

4148

积分

4K家园VIP

Rank: 9Rank: 9Rank: 9

积分
4148
发表于 2021-9-27 18:28:49 | 显示全部楼层
确实不错,顶先
回复 支持 反对

使用道具 举报

30

主题

1181

帖子

3521

积分

4K家园VIP

Rank: 9Rank: 9Rank: 9

积分
3521
发表于 2021-9-29 05:43:53 | 显示全部楼层
围观 围观 沙发在哪里!!!
回复 支持 反对

使用道具 举报

0

主题

647

帖子

2256

积分

注册会员

Rank: 2

积分
2256
发表于 2021-10-6 16:22:45 | 显示全部楼层
感谢楼主分享
回复 支持 反对

使用道具 举报

您需要登录后才可以回帖 登录 | 立即注册

本版积分规则

精彩图文
Archiver|手机版|TAG|Sitemap|新帖|专题|联系我们:邮箱: 4kjia.com@gmail.com   

4k家园   ©2019