[4K MV] 2021 Dreamcatcher - BOCA (Dance Video) (K-Zombie ver) 4k[2160P/MP4/371MB

[复制链接]

2567

主题

2891

帖子

2万

积分

超级版主

Rank: 8Rank: 8

积分
24052
 楼主| 发表于 2021-9-15 21:50:54 | 显示全部楼层 |阅读模式
本帖最后由 叽里呱啦 于 2021-9-12 14:35 编辑

Dreamcatcher - BOCA (Dance Video) (K-Zombie ver.) 4k.mp4_20210912_134245.988.jpg Dreamcatcher - BOCA (Dance Video) (K-Zombie ver.) 4k.mp4_20210912_134312.900.jpg Dreamcatcher - BOCA (Dance Video) (K-Zombie ver.) 4k.mp4_20210912_134319.222.jpg Dreamcatcher - BOCA (Dance Video) (K-Zombie ver.) 4k.mp4_20210912_134328.662.jpg Dreamcatcher - BOCA (Dance Video) (K-Zombie ver.) 4k.mp4_20210912_134333.661.jpg Dreamcatcher - BOCA (Dance Video) (K-Zombie ver.) 4k.mp4_20210912_134358.340.jpg

General
Complete name                  : I:\BaiduNetdiskDownload\Dreamcatcher - BOCA (Dance Video) (K-Zombie ver.) 4k.mp4
Format                         : MPEG-4
Format profile                 : Base Media
Codec ID                       : isom (isom/iso2/avc1/mp41)
File size                      : 371 MiB
Duration                       : 3 min 17 s
Overall bit rate               : 15.8 Mb/s
Writing application            : Lavf58.12.100
exvr                           : EX1.8.2(C1.0.9)

Video
ID                             : 1
Format                         : AVC
Format/Info                    : Advanced Video Codec
Format profile                 : High@L5.1
Format settings                : CABAC / 4 Ref Frames
Format settings, CABAC         : Yes
Format settings, Reference fra : 4 frames
Codec ID                       : avc1
Codec ID/Info                  : Advanced Video Coding
Duration                       : 3 min 17 s
Bit rate                       : 15.6 Mb/s
Width                          : 3 840 pixels
Height                         : 2 160 pixels
Display aspect ratio           : 16:9
Frame rate mode                : Constant
Frame rate                     : 23.976 (23976/1000) FPS
Color space                    : YUV
Chroma subsampling             : 4:2:0
Bit depth                      : 8 bits
Scan type                      : Progressive
Bits/(Pixel*Frame)             : 0.078
Stream size                    : 367 MiB (99%)
Color range                    : Limited
Color primaries                : BT.709
Transfer characteristics       : BT.709
Matrix coefficients            : BT.709
Codec configuration box        : avcC

Audio
ID                             : 2
Format                         : AAC LC
Format/Info                    : Advanced Audio Codec Low Complexity
Codec ID                       : mp4a-40-2
Duration                       : 3 min 17 s
Bit rate mode                  : Constant
Bit rate                       : 192 kb/s
Channel(s)                     : 2 channels
Channel layout                 : L R
Sampling rate                  : 48.0 kHz
Frame rate                     : 46.875 FPS (1024 SPF)
Compression mode               : Lossy
Stream size                    : 4.52 MiB (1%)
Default                        : Yes
Alternate group                : 1

网盘下载失效不补:链接: https://pan.baidu.com/s/1R85QqQe-ip6zBhUu6RucMg 提取码:
****此区域为收费内容****    需支付 15 金币后可查看立即购买






上一篇:[4K MV] 2021 Dreamcatcher - BEcause (Dance Video) (MV ver) 4k [2160P/MP4/418MB]
下一篇:[4K MV] 2021 HYO - Second (Feat. BIBI) 4k [2160P/MP4/419MB]
回复

使用道具 举报

40

主题

1459

帖子

4181

积分

4K家园VIP

Rank: 9Rank: 9Rank: 9

积分
4181
发表于 2021-9-15 21:50:59 来自手机 | 显示全部楼层
前排支持下
回复 支持 反对

使用道具 举报

2

主题

1684

帖子

4588

积分

4K家园VIP

Rank: 9Rank: 9Rank: 9

积分
4588
发表于 2021-9-15 21:52:27 | 显示全部楼层
出4K版啦,下个看看
回复 支持 反对

使用道具 举报

1

主题

1366

帖子

3906

积分

4K家园VIP

Rank: 9Rank: 9Rank: 9

积分
3906
发表于 2021-9-15 21:53:35 | 显示全部楼层
感谢楼主的分享,还是阔以滴
回复 支持 反对

使用道具 举报

46

主题

1413

帖子

4075

积分

4K家园VIP

Rank: 9Rank: 9Rank: 9

积分
4075
发表于 2021-9-16 00:08:53 | 显示全部楼层
这个资源我记得是一套的,楼主还有没有
回复 支持 反对

使用道具 举报

44

主题

1469

帖子

4225

积分

4K家园VIP

Rank: 9Rank: 9Rank: 9

积分
4225
发表于 2021-9-16 07:35:30 | 显示全部楼层
站位支持
回复 支持 反对

使用道具 举报

0

主题

647

帖子

2256

积分

注册会员

Rank: 2

积分
2256
发表于 2021-9-26 21:54:51 | 显示全部楼层

谢谢分享资源
回复 支持 反对

使用道具 举报

您需要登录后才可以回帖 登录 | 立即注册

本版积分规则

精彩图文
Archiver|手机版|TAG|Sitemap|新帖|专题|联系我们:邮箱: 4kjia.com@gmail.com   

4k家园   ©2019