[4K MV] 2021 fromis_9 - Talk & Talk 4k[2160P/MP4/369MB]

[复制链接]

2610

主题

2944

帖子

2万

积分

超级版主

Rank: 8Rank: 8

积分
24527
 楼主| 发表于 2021-11-2 10:47:43 | 显示全部楼层 |阅读模式
本帖最后由 叽里呱啦 于 2021-11-2 10:47 编辑

fromis_9 - Talk & Talk 4k.mp4_20210912_134702.373.jpg fromis_9 - Talk & Talk 4k.mp4_20210912_134709.933.jpg fromis_9 - Talk & Talk 4k.mp4_20210912_134723.100.jpg fromis_9 - Talk & Talk 4k.mp4_20210912_134735.053.jpg fromis_9 - Talk & Talk 4k.mp4_20210912_134739.870.jpg fromis_9 - Talk & Talk 4k.mp4_20210912_134750.669.jpg

General
Complete name                  : I:\BaiduNetdiskDownload\fromis_9 - Talk & Talk 4k.mp4
Format                         : MPEG-4
Format profile                 : Base Media
Codec ID                       : isom (isom/iso2/avc1/mp41)
File size                      : 369 MiB
Duration                       : 4 min 14 s
Overall bit rate               : 12.2 Mb/s
Writing application            : Lavf58.12.100
exvr                           : EX1.8.2(C1.0.9)

Video
ID                             : 1
Format                         : AVC
Format/Info                    : Advanced Video Codec
Format profile                 : High@L5.1
Format settings                : CABAC / 4 Ref Frames
Format settings, CABAC         : Yes
Format settings, Reference fra : 4 frames
Codec ID                       : avc1
Codec ID/Info                  : Advanced Video Coding
Duration                       : 4 min 14 s
Bit rate                       : 12.0 Mb/s
Width                          : 3 840 pixels
Height                         : 2 160 pixels
Display aspect ratio           : 16:9
Frame rate mode                : Constant
Frame rate                     : 23.976 (23976/1000) FPS
Color space                    : YUV
Chroma subsampling             : 4:2:0
Bit depth                      : 8 bits
Scan type                      : Progressive
Bits/(Pixel*Frame)             : 0.060
Stream size                    : 363 MiB (98%)
Color range                    : Limited
Color primaries                : BT.709
Transfer characteristics       : BT.709
Matrix coefficients            : BT.709
Codec configuration box        : avcC

Audio
ID                             : 2
Format                         : AAC LC
Format/Info                    : Advanced Audio Codec Low Complexity
Codec ID                       : mp4a-40-2
Duration                       : 4 min 14 s
Bit rate mode                  : Constant
Bit rate                       : 192 kb/s
Channel(s)                     : 2 channels
Channel layout                 : L R
Sampling rate                  : 48.0 kHz
Frame rate                     : 46.875 FPS (1024 SPF)
Compression mode               : Lossy
Stream size                    : 5.83 MiB (2%)
Default                        : Yes
Alternate group                : 1

网盘下载失效不补:链接: https://pan.baidu.com/s/1mFPIA6yKuo5YX3ttC-5Vhw 提取码:
****此区域为收费内容****    需支付 15 金币后可查看立即购买




上一篇:[4K MV] 2021 Dreamcatcher - BOCA (Dance Video) (K-Zombie ver) 4k[2160P/MP4/371MB
下一篇:[4K MV] 2021 HYO - Second (Feat. BIBI) 4k [2160P/MP4/419MB]
回复

使用道具 举报

0

主题

1281

帖子

3669

积分

4K家园VIP

Rank: 9Rank: 9Rank: 9

积分
3669
发表于 2021-11-2 10:47:48 来自手机 | 显示全部楼层
试试看吧
回复 支持 反对

使用道具 举报

56

主题

1419

帖子

4091

积分

4K家园VIP

Rank: 9Rank: 9Rank: 9

积分
4091
发表于 2021-11-5 15:37:37 | 显示全部楼层
都不知道说的啥
回复 支持 反对

使用道具 举报

49

主题

1428

帖子

4110

积分

4K家园VIP

Rank: 9Rank: 9Rank: 9

积分
4110
发表于 2021-11-5 23:22:33 来自手机 | 显示全部楼层
LZ敢整点更有创意的不?兄弟们等着围观捏~
回复 支持 反对

使用道具 举报

201

主题

1689

帖子

4627

积分

4K家园VIP

Rank: 9Rank: 9Rank: 9

积分
4627
发表于 2021-11-6 09:20:56 | 显示全部楼层
怎么这么大,希望我电视能看啊
回复 支持 反对

使用道具 举报

55

主题

1422

帖子

4142

积分

4K家园VIP

Rank: 9Rank: 9Rank: 9

积分
4142
发表于 2021-11-6 16:14:03 | 显示全部楼层
在撸一遍。。。
回复 支持 反对

使用道具 举报

0

主题

4

帖子

33

积分

4K家园VIP

Rank: 9Rank: 9Rank: 9

积分
33
发表于 2021-11-15 21:55:58 | 显示全部楼层
有这么神吗?
回复 支持 反对

使用道具 举报

0

主题

5

帖子

18

积分

新手上路

Rank: 1

积分
18
发表于 2021-11-25 14:39:57 | 显示全部楼层
好像下一个看看,就是不知道我这电脑可以不
回复 支持 反对

使用道具 举报

您需要登录后才可以回帖 登录 | 立即注册

本版积分规则

精彩图文
Archiver|手机版|TAG|Sitemap|新帖|专题|联系我们:邮箱: 4kjia.com@gmail.com   

4k家园   ©2019