[4K MV] 2021 HYO - Second (Feat. BIBI) 4k [2160P/MP4/419MB]

[复制链接]

2566

主题

2890

帖子

2万

积分

超级版主

Rank: 8Rank: 8

积分
24032
 楼主| 发表于 2021-9-19 21:37:41 | 显示全部楼层 |阅读模式
本帖最后由 叽里呱啦 于 2021-9-12 14:46 编辑

HYO - Second (Feat. BIBI) 4k.mp4_20210912_135747.958.jpg HYO - Second (Feat. BIBI) 4k.mp4_20210912_135456.973.jpg HYO - Second (Feat. BIBI) 4k.mp4_20210912_135513.398.jpg HYO - Second (Feat. BIBI) 4k.mp4_20210912_135541.501.jpg HYO - Second (Feat. BIBI) 4k.mp4_20210912_135614.046.jpg HYO - Second (Feat. BIBI) 4k.mp4_20210912_135855.197.jpg

General
Complete name                  : I:\BaiduNetdiskDownload\HYO - Second (Feat. BIBI) 4k.mp4
Format                         : MPEG-4
Format profile                 : Base Media
Codec ID                       : isom (isom/iso2/avc1/mp41)
File size                      : 419 MiB
Duration                       : 3 min 47 s
Overall bit rate               : 15.5 Mb/s
Writing application            : Lavf58.12.100
exvr                           : EX1.8.2(C1.0.9)

Video
ID                             : 1
Format                         : AVC
Format/Info                    : Advanced Video Codec
Format profile                 : High@L5.1
Format settings                : CABAC / 4 Ref Frames
Format settings, CABAC         : Yes
Format settings, Reference fra : 4 frames
Codec ID                       : avc1
Codec ID/Info                  : Advanced Video Coding
Duration                       : 3 min 47 s
Bit rate                       : 15.3 Mb/s
Width                          : 3 840 pixels
Height                         : 2 160 pixels
Display aspect ratio           : 16:9
Frame rate mode                : Constant
Frame rate                     : 23.976 (23976/1000) FPS
Color space                    : YUV
Chroma subsampling             : 4:2:0
Bit depth                      : 8 bits
Scan type                      : Progressive
Bits/(Pixel*Frame)             : 0.077
Stream size                    : 414 MiB (99%)
Color range                    : Limited
Color primaries                : BT.709
Transfer characteristics       : BT.709
Matrix coefficients            : BT.709
Codec configuration box        : avcC

Audio
ID                             : 2
Format                         : AAC LC
Format/Info                    : Advanced Audio Codec Low Complexity
Codec ID                       : mp4a-40-2
Duration                       : 3 min 47 s
Bit rate mode                  : Constant
Bit rate                       : 192 kb/s
Channel(s)                     : 2 channels
Channel layout                 : L R
Sampling rate                  : 48.0 kHz
Frame rate                     : 46.875 FPS (1024 SPF)
Compression mode               : Lossy
Stream size                    : 5.20 MiB (1%)
Default                        : Yes
Alternate group                : 1

网盘下载失效不补:链接: https://pan.baidu.com/s/1NilkX1d-1aUWP2HQaSAYow 提取码:
****此区域为收费内容****    需支付 15 金币后可查看立即购买


有更好的Bugs!版本,需要的内信告知





上一篇:[4K MV] 2021 Dreamcatcher - BOCA (Dance Video) (K-Zombie ver) 4k[2160P/MP4/371MB
下一篇:[4K MV] 2021 KWON EUN BI - Door 4k [2160P/MP4/390MB]
回复

使用道具 举报

0

主题

1289

帖子

3883

积分

4K家园VIP

Rank: 9Rank: 9Rank: 9

积分
3883
发表于 2021-9-19 21:37:45 | 显示全部楼层
秀起来~
回复 支持 反对

使用道具 举报

2

主题

1284

帖子

3868

积分

4K家园VIP

Rank: 9Rank: 9Rank: 9

积分
3868
发表于 2021-9-20 04:18:35 来自手机 | 显示全部楼层
发发呆,回回帖,工作结束~
回复 支持 反对

使用道具 举报

56

主题

1484

帖子

4308

积分

4K家园VIP

Rank: 9Rank: 9Rank: 9

积分
4308
发表于 2021-9-21 04:11:00 | 显示全部楼层
支持一下楼主,顶起来
回复 支持 反对

使用道具 举报

1

主题

1567

帖子

4307

积分

4K家园VIP

Rank: 9Rank: 9Rank: 9

积分
4307
发表于 2021-9-21 17:32:55 | 显示全部楼层
多发些资源啊
回复 支持 反对

使用道具 举报

2

主题

1139

帖子

3433

积分

4K家园VIP

Rank: 9Rank: 9Rank: 9

积分
3433
发表于 2021-9-23 17:24:22 | 显示全部楼层
好帖必须得顶起
回复 支持 反对

使用道具 举报

0

主题

20

帖子

98

积分

新手上路

Rank: 1

积分
98
发表于 2021-10-2 22:01:44 | 显示全部楼层
谢谢楼主分享
回复 支持 反对

使用道具 举报

您需要登录后才可以回帖 登录 | 立即注册

本版积分规则

精彩图文
Archiver|手机版|TAG|Sitemap|新帖|专题|联系我们:邮箱: 4kjia.com@gmail.com   

4k家园   ©2019