[4K MV] 2021 KWON EUN BI - Door 4k [2160P/MP4/390MB]

[复制链接]

2498

主题

2808

帖子

2万

积分

超级版主

Rank: 8Rank: 8

积分
23453
 楼主| 发表于 2021-9-13 10:59:57 | 显示全部楼层 |阅读模式
本帖最后由 叽里呱啦 于 2021-9-17 11:59 编辑

KWON EUN BI - Door 4k.mp4_20210912_140425.190.jpg KWON EUN BI - Door 4k.mp4_20210912_140542.246.jpg KWON EUN BI - Door 4k.mp4_20210912_140558.639.jpg KWON EUN BI - Door 4k.mp4_20210912_140608.550.jpg KWON EUN BI - Door 4k.mp4_20210912_140614.471.jpg KWON EUN BI - Door 4k.mp4_20210912_140622.887.jpg KWON EUN BI - Door 4k.mp4_20210912_140649.735.jpg KWON EUN BI - Door 4k.mp4_20210912_140713.710.jpg

General
Complete name                  : I:\BaiduNetdiskDownload\KWON EUN BI - Door 4k.mp4
Format                         : MPEG-4
Format profile                 : Base Media
Codec ID                       : isom (isom/iso2/avc1/mp41)
File size                      : 391 MiB
Duration                       : 3 min 23 s
Overall bit rate               : 16.1 Mb/s
Writing application            : Lavf58.12.100
exvr                           : EX1.8.2(C1.0.9)

Video
ID                             : 1
Format                         : AVC
Format/Info                    : Advanced Video Codec
Format profile                 : High@L5.1
Format settings                : CABAC / 4 Ref Frames
Format settings, CABAC         : Yes
Format settings, Reference fra : 4 frames
Codec ID                       : avc1
Codec ID/Info                  : Advanced Video Coding
Duration                       : 3 min 23 s
Bit rate                       : 15.9 Mb/s
Width                          : 3 840 pixels
Height                         : 2 160 pixels
Display aspect ratio           : 16:9
Frame rate mode                : Constant
Frame rate                     : 23.976 (23976/1000) FPS
Color space                    : YUV
Chroma subsampling             : 4:2:0
Bit depth                      : 8 bits
Scan type                      : Progressive
Bits/(Pixel*Frame)             : 0.080
Stream size                    : 386 MiB (99%)
Color range                    : Limited
Color primaries                : BT.709
Transfer characteristics       : BT.709
Matrix coefficients            : BT.709
Codec configuration box        : avcC

Audio
ID                             : 2
Format                         : AAC LC
Format/Info                    : Advanced Audio Codec Low Complexity
Codec ID                       : mp4a-40-2
Duration                       : 3 min 23 s
Bit rate mode                  : Constant
Bit rate                       : 192 kb/s
Channel(s)                     : 2 channels
Channel layout                 : L R
Sampling rate                  : 48.0 kHz
Frame rate                     : 46.875 FPS (1024 SPF)
Compression mode               : Lossy
Stream size                    : 4.65 MiB (1%)
Default                        : Yes
Alternate group                : 1

网盘下载失效不补:链接: https://pan.baidu.com/s/1wp8KyHnSMViKBHd2yl6WIQ 提取码:
****此区域为收费内容****    需支付 15 金币后可查看立即购买


更好的Kwon Eun Bi - Door [Bugs! 2160p]1.59GB,欢迎咨询



上一篇:[4K MV] 2021 HYO - Second (Feat. BIBI) 4k [2160P/MP4/419MB]
回复

使用道具 举报

37

主题

1466

帖子

4176

积分

4K家园VIP

Rank: 9Rank: 9Rank: 9

积分
4176
发表于 2021-9-13 11:00:02 | 显示全部楼层
好帖必须得顶起
回复 支持 反对

使用道具 举报

1

主题

1319

帖子

3799

积分

4K家园VIP

Rank: 9Rank: 9Rank: 9

积分
3799
发表于 2021-9-13 14:13:43 | 显示全部楼层
秀起来~
回复 支持 反对

使用道具 举报

1

主题

1676

帖子

4636

积分

4K家园VIP

Rank: 9Rank: 9Rank: 9

积分
4636
发表于 2021-9-13 18:10:58 来自手机 | 显示全部楼层
嘘,低调。
回复 支持 反对

使用道具 举报

54

主题

1510

帖子

4318

积分

4K家园VIP

Rank: 9Rank: 9Rank: 9

积分
4318
发表于 2021-9-13 22:06:24 | 显示全部楼层
路过的帮顶
回复 支持 反对

使用道具 举报

3

主题

1323

帖子

3991

积分

4K家园VIP

Rank: 9Rank: 9Rank: 9

积分
3991
发表于 2021-9-13 23:52:44 | 显示全部楼层
支持一下楼主发表的内容
回复 支持 反对

使用道具 举报

您需要登录后才可以回帖 登录 | 立即注册

本版积分规则

精彩图文
Archiver|手机版|TAG|Sitemap|新帖|专题|联系我们:邮箱: 4kjia.com@gmail.com   

4k家园   ©2019