[4K电影] 凯特(内封中字) / Kate (2021) 4K高清版本下载/12.66GB

[复制链接]

11

主题

1192

帖子

3558

积分

4K家园VIP

Rank: 9Rank: 9Rank: 9

积分
3558
 楼主| 发表于 2021-9-12 22:01:01 | 显示全部楼层 |阅读模式
本帖最后由 最爱4K哟 于 2021-9-12 23:05 编辑

QQ图片20210912220607_副本.png

◎译  名 凯特 / 绝命凯特
◎片  名 Kate
◎年  代 2021
◎产  地 美国
◎类  别 动作 / 惊悚 / 犯罪 / 冒险
◎语  言 英语
◎上映日期 2021-09-10(美国网络)
◎IMDb评分  6.4/10 from 7827 users
◎IMDb链接  https://www.imdb.com/title/tt7737528/
◎豆瓣评分   6.3/10 from 1912 users
◎豆瓣链接 https://movie.douban.com/subject/27177908/
◎片  长 106分钟
◎导  演 塞德里克·萨科
◎编  剧 乌迈尔·阿莱姆
◎演  员 玛丽·伊丽莎白·温斯特德
       米希尔·赫伊斯曼
       伍迪·哈里森
       浅野忠信
       艾尔西亚·罗塔鲁
       石原贵雅
       阿梅利亚·克劳奇
       国村隼
       玛丽·亚马莫托
       艾娃·卡约菲丽斯
       约恩·奥布赖恩
       西琳娅·温西里
       大卫·雷奇



◎简  介

  Netflix将打造一部以女性为主角的硬动作片《凯特》(Kate),具有《杀死比尔》和《女囚尼基塔》的风格,“把凯特·布兰切特想象为李·马文带进一部硬汉动作惊悚片,女主角要在24小时之内解决自己的谋杀案”。不过大魔王并没有确定出演,片方将寻找合适导演和主演,明年4月开拍,成本约为2500万美元。剧本由Umair Aleem(《终极救援》)编写,制片人包括 Kelly McCormick(《极寒之城》)、大卫·雷奇(《疾速追杀》《极寒之城》《死侍2》)、 Bryan Unkeless(《饥饿游戏》《我,托尼亚》)。
Video
ID : 1
Format : HEVC
Format/Info : High Efficiency Video Coding
Format profile : Main 10@L5.1@High
HDR format : SMPTE ST 2086, HDR10 compatible
Codec ID : V_MPEGH/ISO/HEVC
Duration : 1 h 46 min
Bit rate : 16.3 Mb/s
Width : 3 840 pixels
Height : 1 608 pixels
Display aspect ratio : 2.40:1
Frame rate mode : Constant
Frame rate : 24.000 FPS
Color space : YUV
Chroma subsampling : 4:2:0 (Type 2)
Bit depth : 10 bits
Bits/(Pixel*Frame) : 0.110
Stream size : 12.1 GiB (95%)
Writing library : x265 3.3+31-g431a22e82:[Windows][GCC 11.0.0][64 bit] 10bit
Encoding settings : cpuid=1111039 / frame-threads=4 / numa-pools=28 / wpp / no-pmode / no-pme / no-psnr / no-ssim / log-level=2 / input-csp=1 / input-res=3840x1608 / interlace=0 / total-frames=137762 / level-idc=51 / high-tier=1 / uhd-bd=0 / ref=4 / no-allow-non-conformance / repeat-headers / annexb / aud / hrd / info / hash=0 / no-temporal-layers / open-gop / min-keyint=24 / keyint=250 / gop-lookahead=0 / bframes=4 / b-adapt=2 / b-pyramid / bframe-bias=0 / rc-lookahead=25 / lookahead-slices=4 / scenecut=40 / hist-scenecut=0 / radl=0 / no-splice / no-intra-refresh / ctu=64 / min-cu-size=8 / rect / no-amp / max-tu-size=32 / tu-inter-depth=1 / tu-intra-depth=1 / limit-tu=0 / rdoq-level=2 / dynamic-rd=0.00 / no-ssim-rd / signhide / no-tskip / nr-intra=0 / nr-inter=0 / no-constrained-intra / strong-intra-smoothing / max-merge=3 / limit-refs=3 / limit-modes / me=3 / subme=3 / merange=57 / temporal-mvp / no-frame-dup / no-hme / weightp / no-weightb / no-analyze-src-pics / deblock=-2:-2 / no-sao / no-sao-non-deblock / rd=4 / selective-sao=0 / no-early-skip / rskip / no-fast-intra / no-tskip-fast / no-cu-lossless / no-b-intra / no-splitrd-skip / rdpenalty=0 / psy-rd=2.00 / psy-rdoq=1.00 / no-rd-refine / no-lossless / cbqpoffs=0 / crqpoffs=0 / rc=crf / crf=14.0 / qcomp=0.60 / qpstep=4 / stats-write=0 / stats-read=0 / vbv-maxrate=100000 / vbv-bufsize=100000 / vbv-init=0.9 / crf-max=0.0 / crf-min=0.0 / ipratio=1.40 / pbratio=1.30 / aq-mode=1 / aq-strength=1.00 / cutree / zone-count=0 / no-strict-cbr / qg-size=32 / no-rc-grain / qpmax=69 / qpmin=0 / no-const-vbv / sar=0 / overscan=0 / videoformat=5 / range=0 / colorprim=9 / transfer=16 / colormatrix=9 / chromaloc=1 / chromaloc-top=2 / chromaloc-bottom=2 / display-window=0 / master-display=G(13250,34500)B(7500,3000)R(34000,16000)WP(15635,16450)L(40000000,50) / cll=738,157 / min-luma=0 / max-luma=1023 / log2-max-poc-lsb=8 / vui-timing-info / vui-hrd-info / slices=1 / no-opt-qp-pps / no-opt-ref-list-length-pps / no-multi-pass-opt-rps / scenecut-bias=0.05 / hist-threshold=0.01 / no-opt-cu-delta-qp / no-aq-motion / hdr10 / hdr10-opt / no-dhdr10-opt / no-idr-recovery-sei / analysis-reuse-level=0 / analysis-save-reuse-level=0 / analysis-load-reuse-level=0 / scale-factor=0 / refine-intra=0 / refine-inter=0 / refine-mv=1 / refine-ctu-distortion=0 / no-limit-sao / ctu-info=0 / no-lowpass-dct / refine-analysis-type=0 / copy-pic=1 / max-ausize-factor=1.0 / no-dynamic-refine / no-single-sei / no-hevc-aq / no-svt / no-field / qp-adaptation-range=1.00 / no-scenecut-aware-qpconformance-window-offsets / right=0 / bottom=0 / decoder-max-rate=0
Default : Yes
Forced : No
Color range : Limited
Color primaries : BT.2020
Transfer characteristics : PQ
Matrix coefficients : BT.2020 non-constant
Mastering display color primaries : Display P3
Mastering display luminance : min: 0.0050 cd/m2, max: 4000 cd/m2
Maximum Content Light Level : 738 cd/m2
Maximum Frame-Average Light Level : 157 cd/m2

Audio
ID : 2
Format : E-AC-3 JOC
Format/Info : Enhanced AC-3 with Joint Object Coding
Commercial name : Dolby Digital Plus with Dolby Atmos
Codec ID : A_EAC3
Duration : 1 h 46 min
Bit rate mode : Constant
Bit rate : 768 kb/s
Channel(s) : 6 channels
Channel layout : L R C LFE Ls Rs
Sampling rate : 48.0 kHz
Frame rate : 31.250 FPS (1536 SPF)
Compression mode : Lossy
Stream size : 584 MiB (5%)
Language : English
Service kind : Complete Main
Default : No
Forced : No
Complexity index : 16
Number of dynamic objects : 15
Bed channel count : 1 channel
Bed channel configuration : LFE

Text #1
ID : 3
Format : UTF-8
Codec ID : S_TEXT/UTF8
Codec ID/Info : UTF-8 Plain Text
Duration : 1 h 34 min
Bit rate : 34 b/s
Count of elements : 964
Stream size : 23.8 KiB (0%)
Title : English [CC]
Language : English
Default : No
Forced : No

Text #2
ID : 4
Format : UTF-8
Codec ID : S_TEXT/UTF8
Codec ID/Info : UTF-8 Plain Text
Duration : 1 h 45 min
Bit rate : 49 b/s
Count of elements : 827
Stream size : 38.5 KiB (0%)
Title : Arabic
Language : Arabic
Default : No
Forced : No

Text #3
ID : 5
Format : UTF-8
Codec ID : S_TEXT/UTF8
Codec ID/Info : UTF-8 Plain Text
Duration : 1 h 45 min
Bit rate : 27 b/s
Count of elements : 829
Stream size : 21.1 KiB (0%)
Title : Chinese Simplified
Language : Chinese
Default : No
Forced : No

Text #4
ID : 6
Format : UTF-8
Codec ID : S_TEXT/UTF8
Codec ID/Info : UTF-8 Plain Text
Duration : 1 h 45 min
Bit rate : 27 b/s
Count of elements : 845
Stream size : 21.7 KiB (0%)
Title : Chinese Traditional
Language : Chinese
Default : No
Forced : No

Text #5
ID : 7
Format : UTF-8
Codec ID : S_TEXT/UTF8
Codec ID/Info : UTF-8 Plain Text
Duration : 1 h 45 min
Bit rate : 25 b/s
Count of elements : 798
Stream size : 19.5 KiB (0%)
Title : Czech
Language : Czech
Default : No
Forced : No




下载地址

凯特(12.66GB)Kate.2021.2160p.NF.WEBRip.x265.10bit.HDR.DDP5.1.Atmos-N0TTZ.torrent (16.46 KB, 售价: 9 金币)

上一篇:拆弹部队 / The Hurt Locker (2008) 4K高清版本下载/14.02GB
下一篇:Resurgence (2021) 4K高清版本下载/16.51GB
回复

使用道具 举报

41

主题

1441

帖子

4121

积分

4K家园VIP

Rank: 9Rank: 9Rank: 9

积分
4121
发表于 2021-9-12 22:01:06 | 显示全部楼层
额.....这个可以有
回复 支持 反对

使用道具 举报

2

主题

1664

帖子

4622

积分

4K家园VIP

Rank: 9Rank: 9Rank: 9

积分
4622
发表于 2021-9-12 22:36:20 来自手机 | 显示全部楼层
感谢分享
回复 支持 反对

使用道具 举报

2

主题

80

帖子

941

积分

4K家园VIP

Rank: 9Rank: 9Rank: 9

积分
941
发表于 2021-9-12 22:38:22 | 显示全部楼层
没有字幕差评
回复 支持 反对

使用道具 举报

868

主题

923

帖子

7905

积分

超级版主

Rank: 8Rank: 8

积分
7905
发表于 2021-9-12 23:06:21 | 显示全部楼层

内封中字的
回复 支持 反对

使用道具 举报

0

主题

1546

帖子

4218

积分

4K家园VIP

Rank: 9Rank: 9Rank: 9

积分
4218
发表于 2021-9-12 23:37:26 | 显示全部楼层
楼猪V5啊
回复 支持 反对

使用道具 举报

2

主题

1104

帖子

3330

积分

4K家园VIP

Rank: 9Rank: 9Rank: 9

积分
3330
发表于 7 天前 | 显示全部楼层
为保住菊花,这个一定得回复!
回复 支持 反对

使用道具 举报

0

主题

1301

帖子

3753

积分

4K家园VIP

Rank: 9Rank: 9Rank: 9

积分
3753
发表于 7 天前 | 显示全部楼层
前排,哇咔咔
回复 支持 反对

使用道具 举报

0

主题

3

帖子

14

积分

新手上路

Rank: 1

积分
14
发表于 7 天前 | 显示全部楼层
感谢
回复

使用道具 举报

0

主题

132

帖子

804

积分

新手上路

Rank: 1

积分
804
发表于 7 天前 | 显示全部楼层
其实我一直觉得楼主的品味不错
回复 支持 反对

使用道具 举报

您需要登录后才可以回帖 登录 | 立即注册

本版积分规则

精彩图文
Archiver|手机版|TAG|Sitemap|新帖|专题|联系我们:邮箱: 4kjia.com@gmail.com   

4k家园   ©2019