[4K电影] Resurgence (2021) 4K高清版本下载/16.51GB

[复制链接]

59

主题

1497

帖子

4287

积分

4K家园VIP

Rank: 9Rank: 9Rank: 9

积分
4287
 楼主| 发表于 2021-9-12 22:17:52 | 显示全部楼层 |阅读模式
本帖最后由 最爱4K哟 于 2021-9-12 23:08 编辑

QQ图片20210912223552_副本.png

◎片  名 Resurgence
◎年  代 2021
◎产  地 美国
◎类  别 纪录片 / 体育
◎语  言 英语
◎上映日期 2021
◎IMDb评分  7.4/10 from 70 users
◎IMDb链接  https://www.imdb.com/title/tt14763752/
◎片  长 112分钟
◎导  演 赫伯加农炮 / 马斯顿索耶斯
◎编  剧 赫伯加农炮 / 马斯顿索耶斯
◎演  员 海利·亚当斯
                   杰弗里·阿德勒
                   本·伯杰龙
                   贾斯汀·伯格
                   赫伯加农炮
                   戴夫·卡斯特罗
                   Katrin Tanja Davidsdottir
                   马特·弗雷泽
                   蔡斯·英格拉汉姆
                   塞缪尔·昆特
                   贾斯汀·洛弗兰科
                   贾斯汀·梅代罗斯
                   诺阿Ohlsen
                   卡里·皮尔斯
                   马斯顿索耶斯
                   蒂亚-克莱尔·图米
                   布鲁克威尔斯


◎简  介

       暂无
Video
ID : 1
Format : HEVC
Format/Info : High Efficiency Video Coding
Format profile : Main@L5.1@High
Codec ID : V_MPEGH/ISO/HEVC
Duration : 1 h 52 min
Bit rate : 20.6 Mb/s
Width : 3 840 pixels
Height : 2 152 pixels
Display aspect ratio : 16:9
Frame rate mode : Constant
Frame rate : 23.976 (24000/1001) FPS
Color space : YUV
Chroma subsampling : 4:2:0
Bit depth : 8 bits
Bits/(Pixel*Frame) : 0.104
Stream size : 16.2 GiB (98%)
Writing library : x265 3.5+9-bf91444e0:[Windows][GCC 10.0.0][64 bit] 8bit+10bit+12bit
Encoding settings : cpuid=1111039 / frame-threads=4 / numa-pools=16 / wpp / no-pmode / no-pme / no-psnr / no-ssim / log-level=2 / input-csp=1 / input-res=3840x2152 / interlace=0 / total-frames=0 / level-idc=51 / high-tier=1 / uhd-bd=0 / ref=4 / no-allow-non-conformance / no-repeat-headers / annexb / aud / no-eob / no-eos / hrd / info / hash=0 / no-temporal-layers / no-open-gop / min-keyint=23 / keyint=250 / gop-lookahead=0 / bframes=4 / b-adapt=2 / b-pyramid / bframe-bias=0 / rc-lookahead=20 / lookahead-slices=4 / scenecut=40 / hist-scenecut=0 / radl=0 / no-splice / no-intra-refresh / ctu=64 / min-cu-size=8 / rect / no-amp / max-tu-size=32 / tu-inter-depth=1 / tu-intra-depth=1 / limit-tu=0 / rdoq-level=0 / dynamic-rd=0.00 / no-ssim-rd / signhide / no-tskip / nr-intra=0 / nr-inter=0 / no-constrained-intra / no-strong-intra-smoothing / max-merge=3 / limit-refs=1 / no-limit-modes / me=1 / subme=2 / merange=57 / temporal-mvp / no-frame-dup / no-hme / weightp / no-weightb / no-analyze-src-pics / deblock=-3:-3 / no-sao / no-sao-non-deblock / rd=3 / selective-sao=0 / early-skip / rskip / no-fast-intra / no-tskip-fast / no-cu-lossless / b-intra / no-splitrd-skip / rdpenalty=0 / psy-rd=2.00 / psy-rdoq=0.00 / no-rd-refine / no-lossless / cbqpoffs=0 / crqpoffs=0 / rc=crf / crf=19.0 / qcomp=0.60 / qpstep=4 / stats-write=0 / stats-read=0 / vbv-maxrate=160000 / vbv-bufsize=160000 / vbv-init=0.9 / min-vbv-fullness=50.0 / max-vbv-fullness=80.0 / crf-max=0.0 / crf-min=0.0 / ipratio=1.40 / pbratio=1.30 / aq-mode=2 / aq-strength=1.00 / no-cutree / zone-count=0 / no-strict-cbr / qg-size=32 / no-rc-grain / qpmax=69 / qpmin=0 / no-const-vbv / sar=0 / overscan=0 / videoformat=5 / range=0 / colorprim=1 / transfer=1 / colormatrix=1 / chromaloc=0 / display-window=0 / cll=0,0 / min-luma=0 / max-luma=255 / log2-max-poc-lsb=8 / vui-timing-info / vui-hrd-info / slices=1 / no-opt-qp-pps / no-opt-ref-list-length-pps / no-multi-pass-opt-rps / scenecut-bias=0.05 / hist-threshold=0.03 / no-opt-cu-delta-qp / no-aq-motion / no-hdr10 / no-hdr10-opt / no-dhdr10-opt / no-idr-recovery-sei / analysis-reuse-level=0 / analysis-save-reuse-level=0 / analysis-load-reuse-level=0 / scale-factor=0 / refine-intra=0 / refine-inter=0 / refine-mv=1 / refine-ctu-distortion=0 / no-limit-sao / ctu-info=0 / no-lowpass-dct / refine-analysis-type=0 / copy-pic=1 / max-ausize-factor=1.0 / no-dynamic-refine / no-single-sei / no-hevc-aq / no-svt / no-field / qp-adaptation-range=1.00 / scenecut-aware-qp=0conformance-window-offsets / right=0 / bottom=0 / decoder-max-rate=0 / no-vbv-live-multi-pass
Language : English
Default : Yes
Forced : No
Color range : Limited
Color primaries : BT.709
Transfer characteristics : BT.709
Matrix coefficients : BT.709

Audio
ID : 2
Format : AC-3
Format/Info : Audio Coding 3
Commercial name : Dolby Digital
Codec ID : A_AC3
Duration : 1 h 52 min
Bit rate mode : Constant
Bit rate : 384 kb/s
Channel(s) : 6 channels
Channel layout : L R C LFE Ls Rs
Sampling rate : 48.0 kHz
Frame rate : 31.250 FPS (1536 SPF)
Compression mode : Lossy
Delay relative to video : 15 ms
Stream size : 310 MiB (2%)
Language : English
Service kind : Complete Main
Default : Yes
Forced : No

Text
ID : 3
Format : UTF-8
Codec ID : S_TEXT/UTF8
Codec ID/Info : UTF-8 Plain Text
Duration : 1 h 51 min
Bit rate : 113 b/s
Count of elements : 2361
Stream size : 93.3 KiB (0%)
Language : German
Default : No
Forced : No

Menu
00:00:00.000 : 1
00:01:15.000 : 2
00:14:56.000 : 3
00:28:21.000 : 4
00:42:19.000 : 5
00:56:40.000 : 6
01:09:10.000 : 7
01:22:49.000 : 8
01:36:45.000 : 9
01:50:23.000 : 10


下载地址
游客,如果您要查看本帖隐藏内容请回复





上一篇:凯特(内封中字) / Kate (2021) 4K高清版本下载/12.66GB
下一篇:致命诱惑 / Fatal Attraction (1987) 4K高清版本下载/18.39GB
回复

使用道具 举报

2

主题

1670

帖子

4546

积分

4K家园VIP

Rank: 9Rank: 9Rank: 9

积分
4546
发表于 2021-9-12 22:17:57 | 显示全部楼层
支持,楼下的跟上哈~
回复 支持 反对

使用道具 举报

1

主题

1516

帖子

4390

积分

4K家园VIP

Rank: 9Rank: 9Rank: 9

积分
4390
发表于 2021-9-13 10:39:08 | 显示全部楼层
前排支持下了哦~
回复 支持 反对

使用道具 举报

3

主题

1319

帖子

3975

积分

4K家园VIP

Rank: 9Rank: 9Rank: 9

积分
3975
发表于 2021-9-13 14:31:53 | 显示全部楼层
支持,楼下的跟上哈~
回复 支持 反对

使用道具 举报

49

主题

1411

帖子

4059

积分

4K家园VIP

Rank: 9Rank: 9Rank: 9

积分
4059
发表于 2021-9-14 20:57:18 | 显示全部楼层
楼主呀,,,您太有才了。。。
回复 支持 反对

使用道具 举报

0

主题

1290

帖子

3882

积分

4K家园VIP

Rank: 9Rank: 9Rank: 9

积分
3882
发表于 2021-9-15 00:31:22 | 显示全部楼层
看帖要回,回帖才健康,在踩踩,楼主辛苦了!
回复 支持 反对

使用道具 举报

您需要登录后才可以回帖 登录 | 立即注册

本版积分规则

精彩图文
Archiver|手机版|TAG|Sitemap|新帖|专题|联系我们:邮箱: 4kjia.com@gmail.com   

4k家园   ©2019