[4K电影] 致命诱惑 / Fatal Attraction (1987) 4K高清版本下载/18.39GB

[复制链接]

868

主题

923

帖子

7905

积分

超级版主

Rank: 8Rank: 8

积分
7905
 楼主| 发表于 7 天前 | 显示全部楼层 |阅读模式
QQ图片20210913100735_副本.png

◎译  名 致命诱惑/Affairs of the Heart/孽缘(港)/致命的吸引力(台 )/致命的诱惑
◎片  名 Fatal Attraction
◎年  代 1987
◎产  地 美国
◎类  别 剧情 / 惊悚
◎语  言 英语
◎上映日期 1987-09-18
◎豆瓣评分 7.0/10 from 4955 users
◎豆瓣链接 https://movie.douban.com/subject/1294587/
◎片  长 119 分钟
◎导  演 阿德里安·莱恩 Adrian Lyne
◎编  剧 詹姆斯·迪尔登 James Dearden
◎主  演 迈克尔·道格拉斯 Michael Douglas
      格伦·克洛斯 Glenn Close
      安妮·阿彻 Anne Archer
      艾伦.汉密尔顿.尼森 Ellen Hamilton Latzen
      简·科拉克斯基 Jane Krakowski
      詹姆斯·埃克豪斯 James Eckhouse
      安娜·莱文 Anna Levine
      乔纳森·布兰戴斯 Jonathan Brandis
      迈克·努斯鲍姆 Mike Nussbaum
      弗雷德·格温 Fred Gwynne
      罗伊丝·史密斯 Lois Smith
      艾伦·弗雷 Ellen Foley
      斯图尔特·潘金 Stuart Pankin

◎标  签 美国 | 惊悚 | 悬疑 | 美国电影 | 情色 | 剧情 | 1987 | 阿德里安·莱恩

◎简  介

  丹(迈克尔·道格拉斯 Michael Douglas 饰)拥有着人人羡慕的幸福家庭,他和妻子贝丝(安妮·阿彻 Anne Archer 饰)之间的感情稳固而又长久,女儿艾伦(Ellen Hamilton Latzen 饰)更是机灵可爱。一次偶然中,不只是鬼迷心窍还是怎地, 丹竟然和一个名叫艾利克斯(格伦·克洛斯 Glenn Close 饰)的女人有了一段露水情缘,回家后面对妻儿,丹的内心充满了愧疚,他暗暗发誓,绝不让背叛再度发生。

  可惜艾利克斯并不同意但的看法,表面上,她是一个成熟稳重的知性派,可骨子里,艾利克斯却拥有着超越常人的偏执和固执,为了满足自己的私欲,她不断的骚扰着丹及其家庭,很快,这种骚扰变升级成为了犯罪。面对来势汹汹的艾利克斯,丹会选择怎样的对策来保护他的家庭呢?

◎获奖情况

  第60届奥斯卡金像奖 ?(1988)
  最佳影片(提名) 雪莉·兰辛?/?斯坦利·R·贾菲
  最佳导演(提名) 阿德里安·莱恩
  最佳女主角(提名) 格伦·克洛斯
  最佳女配角(提名) 安妮·阿彻
  最佳改编剧本(提名) 詹姆斯·迪尔登
  最佳剪辑(提名) 迈克尔·卡恩?/?彼得·E·伯格

  第12届日本电影学院奖 ?(1989)
  最佳外语片(提名)

Video
ID : 1
Format : HEVC
Format/Info : High Efficiency Video Coding
Format profile : Main 10@L5@High
HDR format : Dolby Vision, Version 1.0, dvhe.05.06, BL+RPU
Codec ID : dvhe
Codec ID/Info : High Efficiency Video Coding with Dolby Vision
Duration : 1 h 59 min
Bit rate : 14.9 Mb/s
Width : 3 840 pixels
Height : 2 160 pixels
Display aspect ratio : 16:9
Frame rate mode : Constant
Frame rate : 23.976 (24000/1001) FPS
Color space : YUV
Chroma subsampling : 4:2:0 (Type 0)
Bit depth : 10 bits
Bits/(Pixel*Frame) : 0.075
Stream size : 12.4 GiB (97%)
Default : Yes
Alternate group : 1
Encoded date : UTC 2021-09-12 08:09:24
Tagged date : UTC 2021-09-12 08:13:05
Color range : Full
Codec configuration box : hvcC+dvcC

Audio
ID : 2
Format : AC-3
Format/Info : Audio Coding 3
Commercial name : Dolby Digital
Codec ID : ac-3
Duration : 1 h 59 min
Bit rate mode : Constant
Bit rate : 384 kb/s
Maximum bit rate : 406 kb/s
Channel(s) : 6 channels
Channel layout : L R C LFE Ls Rs
Sampling rate : 48.0 kHz
Frame rate : 31.250 FPS (1536 SPF)
Compression mode : Lossy
Stream size : 328 MiB (3%)
Language : English
Service kind : Complete Main
Encoded date : UTC 2021-09-12 05:36:42
Tagged date : UTC 2021-09-12 08:13:05

Text
ID : 3
Format : Timed Text
Codec ID : tx3g
Duration : 1 h 52 min
Bit rate mode : Variable
Bit rate : 46 b/s
Stream size : 37.5 KiB (0%)
Title : English
Language : English
Forced : No
Encoded date : UTC 2021-09-12 08:13:05
Tagged date : UTC 2021-09-12 08:13:05
迅雷下载资源速度为零,资源敏感或被和谐时,推荐使用qBittorrent等无限速下载软件,有条件的推荐115更好的下载软件!

下载地址

致命诱惑(18.39GB)Fatal.Attraction.1987.2160p.WEB-DL.x265.10bit.HDR10Plus.DTS-H.torrent (23.69 KB, 售价: 9 金币)

上一篇:Resurgence (2021) 4K高清版本下载/16.51GB
下一篇:海角擒凶 / Saboteur (1942) 4K高清版本下载/11.37GB
回复

使用道具 举报

47

主题

1415

帖子

4037

积分

4K家园VIP

Rank: 9Rank: 9Rank: 9

积分
4037
发表于 7 天前 | 显示全部楼层
回复 支持 反对

使用道具 举报

48

主题

1457

帖子

4241

积分

4K家园VIP

Rank: 9Rank: 9Rank: 9

积分
4241
发表于 7 天前 | 显示全部楼层
有4K版卡,下个看下
回复 支持 反对

使用道具 举报

2

主题

1664

帖子

4622

积分

4K家园VIP

Rank: 9Rank: 9Rank: 9

积分
4622
发表于 6 天前 | 显示全部楼层
楼主呀,,,您太有才了。。。
回复 支持 反对

使用道具 举报

5

主题

1420

帖子

4092

积分

4K家园VIP

Rank: 9Rank: 9Rank: 9

积分
4092
发表于 6 天前 | 显示全部楼层
4K家园不错,希望这种资源越多越好
回复 支持 反对

使用道具 举报

37

主题

1421

帖子

4079

积分

4K家园VIP

Rank: 9Rank: 9Rank: 9

积分
4079
发表于 5 天前 来自手机 | 显示全部楼层
撸过
回复 支持 反对

使用道具 举报

您需要登录后才可以回帖 登录 | 立即注册

本版积分规则

精彩图文
Archiver|手机版|TAG|Sitemap|新帖|专题|联系我们:邮箱: 4kjia.com@gmail.com   

4k家园   ©2019