[4K电影] 甜心女孩 / Sweet Girl (2021) 4K高清版本下载/15.19GB

[复制链接]

11

主题

1192

帖子

3558

积分

4K家园VIP

Rank: 9Rank: 9Rank: 9

积分
3558
 楼主| 发表于 2021-9-13 21:17:51 | 显示全部楼层 |阅读模式
QQ图片20210913211451_副本.png

◎译  名 甜心女孩 / 护女煞星(台)
◎片  名 Sweet Girl
◎年  代 2021
◎产  地 美国
◎类  别 剧情 / 动作 / 惊悚
◎语  言 英语
◎上映日期 2021-08-20(美国)
◎IMDb链接 https://www.imdb.com/title/tt10731768/
◎豆瓣链接 https://movie.douban.com/subject/34778519/
◎片  长 109分钟
◎导  演 布莱恩·安德鲁·门多萨 Brian Andrew Mendoza (id:1448368)
◎编  剧 菲利普·艾斯纳 Philip Eisner (id:1454401)
      格雷格·赫维兹 Gregg Hurwitz (id:1352027)
      威尔·斯特普尔斯 Will Staples (id:1446538)
◎演  员 杰森·莫玛 Jason Momoa (id:1022614)
      伊莎贝拉·莫奈 Isabela Moner (id:1356047)
      阿德里娅·阿霍纳 Adria Arjona (id:1348880)
      艾米·布伦尼曼 Amy Brenneman (id:1010591)
      迈克尔·雷蒙德-詹姆斯 Michael Raymond-James (id:1201404)
      凯蒂·M·奥布莱恩 Katy M. O'Brian (id:1407213)
      贾斯汀·巴萨 Justin Bartha (id:1009257)
      曼努埃尔·加西亚-鲁尔福 Manuel Garcia-Rulfo (id:1249341)
      布莱恩·豪威 Brian Howe (id:1317100)
      内尔森·富兰克林 Nelson Franklin (id:1333475)
      雷吉·李 Reggie Lee (id:1316002)
      莱克斯·斯科特·戴维斯 Lex Scott Davis (id:1396837)
      拉扎·杰夫里 Raza Jaffrey (id:1275052)
      多米尼克·福穆萨 Dominic Fumusa (id:1321526)
      戴尔·帕文斯基 Dale Pavinski (id:1353549)
      米丽娜·里韦罗 Milena Rivero (id:1441323)
      威尔·布拉格罗夫 Will Blagrove (id:1205181)
      詹妮弗·克里斯塔·帕尔默 Jennifer Christa Palmer (id:1264788)
      威廉·卡尼亚 William Kania (id:1216458)
      瑞奇·麦克道尔 Rickie McDowell (id:1413050)
      Devin Reeve Devin Reeve (id:1033286)
      Josephine Zoumanigui (id:1253386)
      玛丽莎·托梅 Marisa Tomei (id:1047974)
      布莱恩·安德鲁·门多萨 Brian Andrew Mendoza (id:1448368)


◎简  介
  爱家男子雷·库珀发誓要让制药公司付出代价,因为在他的妻子(阿德里娅·阿霍纳饰)死于癌症之前,该公司将一种或能救命的药物从市场上撤下。然而,这场真相探寻之旅却让他和女儿瑞秋(伊莎贝拉·梅塞德饰)陷入险境,自此雷的任务变成了复仇,以保护自己唯一的家人。

Video
ID : 1
Format : HEVC
Format/Info : High Efficiency Video Coding
Format profile : Main 10@L5.1@High
Codec ID : V_MPEGH/ISO/HEVC
Duration : 1 h 50 min
Bit rate : 18.9 Mb/s
Width : 3 840 pixels
Height : 1 608 pixels
Display aspect ratio : 2.40:1
Frame rate mode : Constant
Frame rate : 24.000 FPS
Color space : YUV
Chroma subsampling : 4:2:0 (Type 2)
Bit depth : 10 bits
Bits/(Pixel*Frame) : 0.128
Stream size : 14.6 GiB (96%)
Writing library : x265 3.5+13-4c6880de4:[Windows][GCC 11.2.0][64 bit] 10bit
Encoding settings : cpuid=1111039 / frame-threads=4 / numa-pools=24 / wpp / no-pmode / no-pme / no-psnr / ssim / log-level=2 / input-csp=1 / input-res=3840x1608 / interlace=0 / total-frames=158863 / level-idc=51 / high-tier=1 / uhd-bd=0 / ref=4 / no-allow-non-conformance / repeat-headers / annexb / no-aud / no-eob / no-eos / hrd / info / hash=0 / no-temporal-layers / no-open-gop / min-keyint=5 / keyint=240 / gop-lookahead=0 / bframes=8 / b-adapt=2 / b-pyramid / bframe-bias=0 / rc-lookahead=72 / lookahead-slices=0 / scenecut=40 / no-hist-scenecut / radl=0 / no-splice / no-intra-refresh / ctu=64 / min-cu-size=8 / no-rect / no-amp / max-tu-size=32 / tu-inter-depth=1 / tu-intra-depth=1 / limit-tu=0 / rdoq-level=2 / dynamic-rd=0.00 / no-ssim-rd / signhide / no-tskip / nr-intra=0 / nr-inter=0 / no-constrained-intra / no-strong-intra-smoothing / max-merge=4 / limit-refs=3 / no-limit-modes / me=3 / subme=5 / merange=48 / temporal-mvp / no-frame-dup / hme / Level / merange / L0,L1,L2=16,32,48 / weightp / weightb / no-analyze-src-pics / deblock=-3:-3 / no-sao / no-sao-non-deblock / rd=4 / selective-sao=0 / no-early-skip / rskip / no-fast-intra / no-tskip-fast / no-cu-lossless / b-intra / no-splitrd-skip / rdpenalty=0 / psy-rd=2.00 / psy-rdoq=1.00 / no-rd-refine / no-lossless / cbqpoffs=0 / crqpoffs=0 / rc=crf / crf=22.0 / qcomp=0.65 / qpstep=4 / stats-write=0 / stats-read=0 / vbv-maxrate=160000 / vbv-bufsize=160000 / vbv-init=0.9 / min-vbv-fullness=50.0 / max-vbv-fullness=80.0 / crf-max=0.0 / crf-min=0.0 / ipratio=1.35 / pbratio=1.25 / aq-mode=2 / aq-strength=0.80 / no-cutree / zone-count=1 / zones: / start-frame=147500 / end-frame=158862 / qp=40 / no-strict-cbr / qg-size=32 / no-rc-grain / qpmax=69 / qpmin=0 / no-const-vbv / sar=1 / overscan=0 / videoformat=5 / range=0 / colorprim=1 / transfer=1 / colormatrix=1 / chromaloc=1 / chromaloc-top=2 / chromaloc-bottom=2 / display-window=0 / cll=0,0 / min-luma=0 / max-luma=1023 / log2-max-poc-lsb=8 / vui-timing-info / vui-hrd-info / slices=1 / no-opt-qp-pps / no-opt-ref-list-length-pps / no-multi-pass-opt-rps / scenecut-bias=0.05 / hist-threshold=0.03 / no-opt-cu-delta-qp / no-aq-motion / no-hdr10 / no-hdr10-opt / no-dhdr10-opt / no-idr-recovery-sei / analysis-reuse-level=0 / analysis-save-reuse-level=0 / analysis-load-reuse-level=0 / scale-factor=0 / refine-intra=0 / refine-inter=0 / refine-mv=1 / refine-ctu-distortion=0 / no-limit-sao / ctu-info=0 / no-lowpass-dct / refine-analysis-type=0 / copy-pic=1 / max-ausize-factor=1.0 / no-dynamic-refine / no-single-sei / no-hevc-aq / no-svt / no-field / qp-adaptation-range=1.00 / scenecut-aware-qp=0conformance-window-offsets / right=0 / bottom=0 / decoder-max-rate=0 / no-vbv-live-multi-pass
Default : Yes
Forced : No
Color range : Limited
Color primaries : BT.709
Transfer characteristics : BT.709
Matrix coefficients : BT.709

Audio
ID : 2
Format : E-AC-3 JOC
Format/Info : Enhanced AC-3 with Joint Object Coding
Commercial name : Dolby Digital Plus with Dolby Atmos
Codec ID : A_EAC3
Duration : 1 h 50 min
Bit rate mode : Constant
Bit rate : 768 kb/s
Channel(s) : 6 channels
Channel layout : L R C LFE Ls Rs
Sampling rate : 48.0 kHz
Frame rate : 31.250 FPS (1536 SPF)
Compression mode : Lossy
Delay relative to video : 13 ms
Stream size : 605 MiB (4%)
Language : English
Service kind : Complete Main
Default : Yes
Forced : No
Complexity index : 16
Number of dynamic objects : 15
Bed channel count : 1 channel
Bed channel configuration : LFE

Text #1
ID : 3
Format : UTF-8
Codec ID : S_TEXT/UTF8
Codec ID/Info : UTF-8 Plain Text
Duration : 1 h 42 min
Bit rate : 41 b/s
Count of elements : 954
Stream size : 30.8 KiB (0%)
Language : English
Default : No
Forced : No

Text #2
ID : 4
Format : UTF-8
Codec ID : S_TEXT/UTF8
Codec ID/Info : UTF-8 Plain Text
Duration : 1 h 45 min
Bit rate : 56 b/s
Count of elements : 1442
Stream size : 43.9 KiB (0%)
Title : SDH
Language : English
Default : No
Forced : No

Text #3
ID : 5
Format : UTF-8
Codec ID : S_TEXT/UTF8
Codec ID/Info : UTF-8 Plain Text
Duration : 1 h 47 min
Bit rate : 60 b/s
Count of elements : 911
Stream size : 47.5 KiB (0%)
Language : Arabic
Default : No
Forced : No

Text #4
ID : 6
Format : UTF-8
Codec ID : S_TEXT/UTF8
Codec ID/Info : UTF-8 Plain Text
Duration : 1 h 47 min
Bit rate : 33 b/s
Count of elements : 879
Stream size : 26.7 KiB (0%)
Language : Czech
Default : No
Forced : No

Text #5
ID : 7
Format : UTF-8
Codec ID : S_TEXT/UTF8
Codec ID/Info : UTF-8 Plain Text
Duration : 1 h 47 min
Bit rate : 33 b/s
Count of elements : 829
Stream size : 26.5 KiB (0%)
Language : Danish
Default : No
Forced : No

Text #6
ID : 8
Format : UTF-8
Codec ID : S_TEXT/UTF8
Codec ID/Info : UTF-8 Plain Text
Duration : 1 h 47 min
Bit rate : 35 b/s
Count of elements : 860
Stream size : 27.7 KiB (0%)
Language : German
Default : No
Forced : No

Text #7
ID : 9
Format : UTF-8
Codec ID : S_TEXT/UTF8
Codec ID/Info : UTF-8 Plain Text
Duration : 1 h 47 min
Bit rate : 58 b/s
Count of elements : 906
Stream size : 46.4 KiB (0%)
Language : Greek
Default : No
Forced : No

Text #8
ID : 10
Format : UTF-8
Codec ID : S_TEXT/UTF8
Codec ID/Info : UTF-8 Plain Text
Duration : 1 h 47 min
Bit rate : 33 b/s
Count of elements : 904
Stream size : 26.3 KiB (0%)
Title : Spanish
Language : Spanish
Default : No
Forced : No

海角擒凶 / Saboteur (1942) 4K高清版本下载/15.19GB

甜心女孩(15.19GB)Sweet.Girl.2021.2160p.NF.WEBRip.x265.10bit.SDR.DDP5.1.Atmos-K.torrent (19.64 KB, 售价: 9 金币)

上一篇:海角擒凶 / Saboteur (1942) 4K高清版本下载/11.37GB
下一篇:What.She.Said (2021) 4K高清版本下载/8.52GB
回复

使用道具 举报

1

主题

1241

帖子

3745

积分

4K家园VIP

Rank: 9Rank: 9Rank: 9

积分
3745
发表于 2021-9-13 21:17:58 | 显示全部楼层
垃圾内容,路过为证。
回复 支持 反对

使用道具 举报

0

主题

18

帖子

138

积分

新手上路

Rank: 1

积分
138
发表于 2021-9-13 21:43:58 | 显示全部楼层
开心呢,精品上线啦!感谢!
回复 支持 反对

使用道具 举报

0

主题

5837

帖子

1万

积分

4K家园VIP

Rank: 9Rank: 9Rank: 9

积分
13898
发表于 7 天前 | 显示全部楼层
太好啦&萬分感謝版主的無私發佈分享%
回复 支持 反对

使用道具 举报

47

主题

1415

帖子

4037

积分

4K家园VIP

Rank: 9Rank: 9Rank: 9

积分
4037
发表于 4 天前 | 显示全部楼层
LZ帖子不给力,勉强给回复下吧
回复 支持 反对

使用道具 举报

62

主题

1525

帖子

4409

积分

4K家园VIP

Rank: 9Rank: 9Rank: 9

积分
4409
发表于 3 天前 来自手机 | 显示全部楼层
为毛老子总也抢不到沙发?!!
回复 支持 反对

使用道具 举报

50

主题

1391

帖子

3983

积分

4K家园VIP

Rank: 9Rank: 9Rank: 9

积分
3983
发表于 昨天 22:52 | 显示全部楼层
不错 支持一个了
回复 支持 反对

使用道具 举报

57

主题

1472

帖子

4272

积分

4K家园VIP

Rank: 9Rank: 9Rank: 9

积分
4272
发表于 3 小时前 | 显示全部楼层
我也是坐沙发的
回复 支持 反对

使用道具 举报

您需要登录后才可以回帖 登录 | 立即注册

本版积分规则

精彩图文
Archiver|手机版|TAG|Sitemap|新帖|专题|联系我们:邮箱: 4kjia.com@gmail.com   

4k家园   ©2019