[4K电影] What.She.Said (2021) 4K高清版本下载/8.52GB

[复制链接]

872

主题

927

帖子

7961

积分

超级版主

Rank: 8Rank: 8

积分
7961
 楼主| 发表于 2021-9-13 22:42:07 | 显示全部楼层 |阅读模式
本帖最后由 最爱4K哟 于 2021-9-14 12:42 编辑

QQ图片20210913221139_副本.png

◎译  名 
◎片  名 What.She.Said
◎年  代 2021
◎产  地 美国
◎类  别 剧情
◎语  言 英语
◎上映日期 2021-9-14
◎IMDb评分  0/10 from 0 users
◎IMDb链接  https://www.imdb.com/title/tt9595816/
◎豆瓣评分 
◎豆瓣链接 
◎片  长 99分钟
◎导  演 艾米·诺瑟普
◎编  剧 珍妮莱斯特
◎主  演 珍妮莱斯特
        朱莉安娜·尤雷纳斯
                   布里特·迈克尔·戈登
                   彼得·伊万格利斯塔
                   杰瑞尔·乌特
                   克里斯托弗·迈切尔·沃森
                   卢卡斯·卡尔扎达
                   外士纳维·夏尔马
                   南希·巴赫
                   艾达·雷吉扎蒙
                   凯莉·莱斯特
                   克里斯·大川
                   佩奇·伯科维茨
                   尼克·布莱克


◎简  介

          当山姆决定放弃对强奸犯的指控时,她的朋友和兄弟姐妹聚集在一起进行感恩节干预。
General
Complete name                  : E:\4K@电影 4K@MV\What.She.Said.2021.2160p.WEB-DL.AAC2.0.HEVC-CMRG.mkv
Format                         : Matroska
Format version                 : Version 4
File size                      : 8.52 GiB
Duration                       : 1 h 39 min
Overall bit rate               : 12.2 Mb/s
Encoded date                   : UTC 2021-09-13 13:03:52
Writing application            : mkvmerge v61.0.0 ('So') 64-bit
Writing library                : libebml v1.4.2 + libmatroska v1.6.4

Video
ID                             : 1
Format                         : HEVC
Format/Info                    : High Efficiency Video Coding
Format profile                 : Main 10@L5@High
Codec ID                       : V_MPEGH/ISO/HEVC
Duration                       : 1 h 39 min
Bit rate                       : 12.1 Mb/s
Width                          : 3 840 pixels
Height                         : 1 570 pixels
Display aspect ratio           : 2.40:1
Frame rate mode                : Constant
Frame rate                     : 23.976 FPS
Color space                    : YUV
Chroma subsampling             : 4:2:0
Bit depth                      : 10 bits
Bits/(Pixel*Frame)             : 0.083
Stream size                    : 8.41 GiB (99%)
Default                        : Yes
Forced                         : No
Color range                    : Limited
Color primaries                : BT.709
Transfer characteristics       : BT.709
Matrix coefficients            : BT.709

Audio
ID                             : 2
Format                         : AAC LC
Format/Info                    : Advanced Audio Codec Low Complexity
Codec ID                       : A_AAC-2
Duration                       : 1 h 39 min
Bit rate                       : 152 kb/s
Channel(s)                     : 2 channels
Channel layout                 : L R
Sampling rate                  : 48.0 kHz
Frame rate                     : 46.875 FPS (1024 SPF)
Compression mode               : Lossy
Stream size                    : 108 MiB (1%)
Title                          : English
Language                       : English
Default                        : No
Forced                         : No

迅雷下载资源速度为零,资源敏感或被和谐时,推荐使用qBittorrent等无限速下载软件,有条件的推荐115更好的下载软件!

下载地址

游客,如果您要查看本帖隐藏内容请回复

****此区域为收费内容****    需支付 9 金币后可查看立即购买




上一篇:甜心女孩 / Sweet Girl (2021) 4K高清版本下载/15.19GB
下一篇:就地避难/ Shelter.in.Place (2021) 4K高清版本下载/7.77GB
回复

使用道具 举报

47

主题

1415

帖子

4037

积分

4K家园VIP

Rank: 9Rank: 9Rank: 9

积分
4037
发表于 2021-9-13 22:42:18 来自手机 | 显示全部楼层
very good
回复 支持 反对

使用道具 举报

6

主题

1115

帖子

3311

积分

4K家园VIP

Rank: 9Rank: 9Rank: 9

积分
3311
发表于 2021-9-14 03:39:02 | 显示全部楼层
支持,楼下的跟上哈~
回复 支持 反对

使用道具 举报

0

主题

2

帖子

16

积分

新手上路

Rank: 1

积分
16
发表于 2021-9-15 00:30:06 | 显示全部楼层

支持,楼下的跟上哈~
回复 支持 反对

使用道具 举报

47

主题

1458

帖子

4216

积分

4K家园VIP

Rank: 9Rank: 9Rank: 9

积分
4216
发表于 2021-9-15 00:53:55 | 显示全部楼层
我也顶起出售广告位
回复 支持 反对

使用道具 举报

14

主题

1164

帖子

3482

积分

4K家园VIP

Rank: 9Rank: 9Rank: 9

积分
3482
发表于 2021-9-15 02:40:11 | 显示全部楼层
看起来好像不错的样子
回复 支持 反对

使用道具 举报

1

主题

1091

帖子

3293

积分

4K家园VIP

Rank: 9Rank: 9Rank: 9

积分
3293
发表于 2021-9-15 16:37:37 | 显示全部楼层
正好需要啊
回复 支持 反对

使用道具 举报

0

主题

7

帖子

30

积分

新手上路

Rank: 1

积分
30
发表于 7 天前 | 显示全部楼层
支持,楼下的跟上哈~
回复 支持 反对

使用道具 举报

您需要登录后才可以回帖 登录 | 立即注册

本版积分规则

精彩图文
Archiver|手机版|TAG|Sitemap|新帖|专题|联系我们:邮箱: 4kjia.com@gmail.com   

4k家园   ©2019