[4K电影] 派对女孩升天记(内封中字) (2021) 4K高清版本下载/15.58GB

[复制链接]

942

主题

1003

帖子

8494

积分

超级版主

Rank: 8Rank: 8

积分
8494
 楼主| 发表于 2021-9-16 10:19:41 | 显示全部楼层 |阅读模式
本帖最后由 最爱4K哟 于 2021-9-21 15:30 编辑

QQ图片20210916100914_副本.png


◎译  名 派对女孩升天记 / 社交女王的升天之旅(台) / 死都要开P(港)
◎片  名 Afterlife of the Party
◎年  代 2021
◎产  地 美国
◎类  别 喜剧 / 爱情 / 奇幻
◎语  言 英语
◎上映日期 2021-09-02(美国网络)
◎IMDb评分  5.8/10 from 4033 users
◎IMDb链接  https://www.imdb.com/title/tt11742798/
◎豆瓣评分 5.7/10 from 420 users
◎豆瓣链接 https://movie.douban.com/subject/35557601/
◎片  长 109 分钟
◎导  演 斯蒂芬·赫瑞克
◎编  剧 嘉莉·弗里德尔
◎主  演 维多利亚·嘉丝蒂
                   亚当·加西亚
                   米多莉·弗朗西斯
                   斯宾塞·萨瑟兰
                   蒂莫西·雷诺夫
                   基罗山·奈杜
                   格洛里亚·加西亚



◎简  介


       交际花(维多利亚·嘉丝蒂饰)经历了最严重的派对出丑…在她的生日周死去。让她惊讶的是,她得到了第二次机会来纠正自己在人世间的错误,重新与所爱的人联系,最重要的是,证明自己有资格进入天空的贵宾室。
General
Complete name                  : E:\4K@电影 4K@MV\Afterlife.of.the.Party.2021.2160p.NF.WEBRip.DDP5.1.Atmos.x265-KiNGS.mkv
Format                         : Matroska
Format version                 : Version 4
File size                      : 15.6 GiB
Duration                       : 1 h 49 min
Overall bit rate               : 20.3 Mb/s
Encoded date                   : UTC 2021-09-15 13:21:53
Writing application            : mkvmerge v60.0.0 ('Are We Copies?') 64-bit
Writing library                : libebml v1.4.2 + libmatroska v1.6.4

Video
ID                             : 1
Format                         : HEVC
Format/Info                    : High Efficiency Video Coding
Format profile                 : Main 10@L5.1@High
Codec ID                       : V_MPEGH/ISO/HEVC
Duration                       : 1 h 49 min
Bit rate                       : 19.5 Mb/s
Width                          : 3 840 pixels
Height                         : 1 600 pixels
Display aspect ratio           : 2.40:1
Frame rate mode                : Constant
Frame rate                     : 24.000 FPS
Color space                    : YUV
Chroma subsampling             : 4:2:0 (Type 2)
Bit depth                      : 10 bits
Bits/(Pixel*Frame)             : 0.132
Stream size                    : 15.0 GiB (96%)
Writing library                : x265 3.5+13-4c6880de4:[Windows][GCC 11.2.0][64 bit] 10bit
Encoding settings              : cpuid=1111039 / frame-threads=4 / numa-pools=24 / wpp / no-pmode / no-pme / no-psnr / ssim / log-level=2 / input-csp=1 / input-res=3840x1600 / interlace=0 / total-frames=158226 / level-idc=51 / high-tier=1 / uhd-bd=0 / ref=4 / no-allow-non-conformance / repeat-headers / annexb / no-aud / no-eob / no-eos / hrd / info / hash=0 / no-temporal-layers / no-open-gop / min-keyint=5 / keyint=240 / gop-lookahead=0 / bframes=8 / b-adapt=2 / b-pyramid / bframe-bias=0 / rc-lookahead=72 / lookahead-slices=0 / scenecut=40 / no-hist-scenecut / radl=0 / no-splice / no-intra-refresh / ctu=64 / min-cu-size=8 / no-rect / no-amp / max-tu-size=32 / tu-inter-depth=1 / tu-intra-depth=1 / limit-tu=0 / rdoq-level=2 / dynamic-rd=0.00 / no-ssim-rd / signhide / no-tskip / nr-intra=0 / nr-inter=0 / no-constrained-intra / no-strong-intra-smoothing / max-merge=4 / limit-refs=3 / no-limit-modes / me=3 / subme=5 / merange=48 / temporal-mvp / no-frame-dup / hme / Level / merange / L0,L1,L2=16,32,48 / weightp / weightb / no-analyze-src-pics / deblock=-3:-3 / no-sao / no-sao-non-deblock / rd=4 / selective-sao=0 / no-early-skip / rskip / no-fast-intra / no-tskip-fast / no-cu-lossless / b-intra / no-splitrd-skip / rdpenalty=0 / psy-rd=2.00 / psy-rdoq=1.00 / no-rd-refine / no-lossless / cbqpoffs=0 / crqpoffs=0 / rc=crf / crf=21.0 / qcomp=0.65 / qpstep=4 / stats-write=0 / stats-read=0 / vbv-maxrate=160000 / vbv-bufsize=160000 / vbv-init=0.9 / min-vbv-fullness=50.0 / max-vbv-fullness=80.0 / crf-max=0.0 / crf-min=0.0 / ipratio=1.35 / pbratio=1.25 / aq-mode=2 / aq-strength=0.80 / no-cutree / zone-count=1 / zones: / start-frame=149990 / end-frame=158225 / qp=40 / no-strict-cbr / qg-size=32 / no-rc-grain / qpmax=69 / qpmin=0 / no-const-vbv / sar=1 / overscan=0 / videoformat=5 / range=0 / colorprim=1 / transfer=1 / colormatrix=1 / chromaloc=1 / chromaloc-top=2 / chromaloc-bottom=2 / display-window=0 / cll=0,0 / min-luma=0 / max-luma=1023 / log2-max-poc-lsb=8 / vui-timing-info / vui-hrd-info / slices=1 / no-opt-qp-pps / no-opt-ref-list-length-pps / no-multi-pass-opt-rps / scenecut-bias=0.05 / hist-threshold=0.03 / no-opt-cu-delta-qp / no-aq-motion / no-hdr10 / no-hdr10-opt / no-dhdr10-opt / no-idr-recovery-sei / analysis-reuse-level=0 / analysis-save-reuse-level=0 / analysis-load-reuse-level=0 / scale-factor=0 / refine-intra=0 / refine-inter=0 / refine-mv=1 / refine-ctu-distortion=0 / no-limit-sao / ctu-info=0 / no-lowpass-dct / refine-analysis-type=0 / copy-pic=1 / max-ausize-factor=1.0 / no-dynamic-refine / no-single-sei / no-hevc-aq / no-svt / no-field / qp-adaptation-range=1.00 / scenecut-aware-qp=0conformance-window-offsets / right=0 / bottom=0 / decoder-max-rate=0 / no-vbv-live-multi-pass
Default                        : Yes
Forced                         : No
Color range                    : Limited
Color primaries                : BT.709
Transfer characteristics       : BT.709
Matrix coefficients            : BT.709

Audio
ID                             : 2
Format                         : E-AC-3 JOC
Format/Info                    : Enhanced AC-3 with Joint Object Coding
Commercial name                : Dolby Digital Plus with Dolby Atmos
Codec ID                       : A_EAC3
Duration                       : 1 h 49 min
Bit rate mode                  : Constant
Bit rate                       : 768 kb/s
Channel(s)                     : 6 channels
Channel layout                 : L R C LFE Ls Rs
Sampling rate                  : 48.0 kHz
Frame rate                     : 31.250 FPS (1536 SPF)
Compression mode               : Lossy
Delay relative to video        : 13 ms
Stream size                    : 604 MiB (4%)
Language                       : English
Service kind                   : Complete Main
Default                        : Yes
Forced                         : No
Complexity index               : 16
Number of dynamic objects      : 15
Bed channel count              : 1 channel
Bed channel configuration      : LFE

Text #1
ID                             : 3
Format                         : UTF-8
Codec ID                       : S_TEXT/UTF8
Codec ID/Info                  : UTF-8 Plain Text
Duration                       : 1 h 46 min
Bit rate                       : 74 b/s
Count of elements              : 1673
Stream size                    : 58.0 KiB (0%)
Language                       : English
Default                        : No
Forced                         : No

Text #2
ID                             : 4
Format                         : UTF-8
Codec ID                       : S_TEXT/UTF8
Codec ID/Info                  : UTF-8 Plain Text
Duration                       : 1 h 48 min
Bit rate                       : 82 b/s
Count of elements              : 1975
Stream size                    : 65.5 KiB (0%)
Title                          : SDH
Language                       : English
Default                        : No
Forced                         : No

Text #3
ID                             : 5
Format                         : UTF-8
Codec ID                       : S_TEXT/UTF8
Codec ID/Info                  : UTF-8 Plain Text
Duration                       : 1 h 48 min
Bit rate                       : 111 b/s
Count of elements              : 1548
Stream size                    : 88.5 KiB (0%)
Language                       : Arabic
Default                        : No
Forced                         : No

Text #4
ID                             : 6
Format                         : UTF-8
Codec ID                       : S_TEXT/UTF8
Codec ID/Info                  : UTF-8 Plain Text
Duration                       : 1 h 48 min
Bit rate                       : 62 b/s
Count of elements              : 1481
Stream size                    : 49.5 KiB (0%)
Language                       : Czech
Default                        : No
Forced                         : No

Text #5
ID                             : 7
Format                         : UTF-8
Codec ID                       : S_TEXT/UTF8
Codec ID/Info                  : UTF-8 Plain Text
Duration                       : 1 h 48 min
Bit rate                       : 59 b/s
Count of elements              : 1440
Stream size                    : 47.6 KiB (0%)
Language                       : Danish
Default                        : No
Forced                         : No

Text #6
ID                             : 8
Format                         : UTF-8
Codec ID                       : S_TEXT/UTF8
Codec ID/Info                  : UTF-8 Plain Text
Duration                       : 1 h 48 min
Bit rate                       : 61 b/s
Count of elements              : 1435
Stream size                    : 48.9 KiB (0%)
Language                       : German
Default                        : No
Forced                         : No

Text #7
ID                             : 9
Format                         : UTF-8
Codec ID                       : S_TEXT/UTF8
Codec ID/Info                  : UTF-8 Plain Text
Duration                       : 1 h 48 min
Bit rate                       : 106 b/s
Count of elements              : 1492
Stream size                    : 84.5 KiB (0%)
Language                       : Greek
Default                        : No
Forced                         : No

Text #8
ID                             : 10
Format                         : UTF-8
Codec ID                       : S_TEXT/UTF8
Codec ID/Info                  : UTF-8 Plain Text
Duration                       : 1 h 48 min
Bit rate                       : 59 b/s
Count of elements              : 1528
Stream size                    : 47.6 KiB (0%)
Title                          : Spanish
Language                       : Spanish
Default                        : No
Forced                         : No

Text #9
ID                             : 11
Format                         : UTF-8
Codec ID                       : S_TEXT/UTF8
Codec ID/Info                  : UTF-8 Plain Text
Duration                       : 1 h 48 min
Bit rate                       : 58 b/s
Count of elements              : 1494
Stream size                    : 46.8 KiB (0%)
Title                          : European
Language                       : Spanish
Default                        : No
Forced                         : No

Text #10
ID                             : 12
Format                         : UTF-8
Codec ID                       : S_TEXT/UTF8
Codec ID/Info                  : UTF-8 Plain Text
Duration                       : 1 h 48 min
Bit rate                       : 58 b/s
Count of elements              : 1335
Stream size                    : 46.6 KiB (0%)
Language                       : Finnish
Default                        : No
Forced                         : No

Text #11
ID                             : 13
Format                         : UTF-8
Codec ID                       : S_TEXT/UTF8
Codec ID/Info                  : UTF-8 Plain Text
Duration                       : 1 h 48 min
Bit rate                       : 57 b/s
Count of elements              : 1510
Stream size                    : 46.0 KiB (0%)
Language                       : French
Default                        : No
Forced                         : No

Text #12
ID                             : 14
Format                         : UTF-8
Codec ID                       : S_TEXT/UTF8
Codec ID/Info                  : UTF-8 Plain Text
Duration                       : 1 h 48 min
Bit rate                       : 101 b/s
Count of elements              : 1508
Stream size                    : 80.9 KiB (0%)
Language                       : Hebrew
Default                        : No
Forced                         : No

Text #13
ID                             : 15
Format                         : UTF-8
Codec ID                       : S_TEXT/UTF8
Codec ID/Info                  : UTF-8 Plain Text
Duration                       : 1 h 48 min
Bit rate                       : 55 b/s
Count of elements              : 1480
Stream size                    : 44.3 KiB (0%)
Language                       : Croatian
Default                        : No
Forced                         : No

Text #14
ID                             : 16
Format                         : UTF-8
Codec ID                       : S_TEXT/UTF8
Codec ID/Info                  : UTF-8 Plain Text
Duration                       : 1 h 48 min
Bit rate                       : 58 b/s
Count of elements              : 1473
Stream size                    : 46.7 KiB (0%)
Language                       : Hungarian
Default                        : No
Forced                         : No

Text #15
ID                             : 17
Format                         : UTF-8
Codec ID                       : S_TEXT/UTF8
Codec ID/Info                  : UTF-8 Plain Text
Duration                       : 1 h 48 min
Bit rate                       : 60 b/s
Count of elements              : 1526
Stream size                    : 47.8 KiB (0%)
Language                       : Indonesian
Default                        : No
Forced                         : No

Text #16
ID                             : 18
Format                         : UTF-8
Codec ID                       : S_TEXT/UTF8
Codec ID/Info                  : UTF-8 Plain Text
Duration                       : 1 h 48 min
Bit rate                       : 61 b/s
Count of elements              : 1446
Stream size                    : 48.7 KiB (0%)
Language                       : Italian
Default                        : No
Forced                         : No

Text #17
ID                             : 19
Format                         : UTF-8
Codec ID                       : S_TEXT/UTF8
Codec ID/Info                  : UTF-8 Plain Text
Duration                       : 1 h 48 min
Bit rate                       : 62 b/s
Count of elements              : 1599
Stream size                    : 49.8 KiB (0%)
Language                       : Japanese
Default                        : No
Forced                         : No

Text #18
ID                             : 20
Format                         : UTF-8
Codec ID                       : S_TEXT/UTF8
Codec ID/Info                  : UTF-8 Plain Text
Duration                       : 1 h 48 min
Bit rate                       : 80 b/s
Count of elements              : 1562
Stream size                    : 64.3 KiB (0%)
Language                       : Korean
Default                        : No
Forced                         : No

Text #19
ID                             : 21
Format                         : UTF-8
Codec ID                       : S_TEXT/UTF8
Codec ID/Info                  : UTF-8 Plain Text
Duration                       : 1 h 48 min
Bit rate                       : 59 b/s
Count of elements              : 1490
Stream size                    : 47.4 KiB (0%)
Language                       : Malay
Default                        : No
Forced                         : No

Text #20
ID                             : 22
Format                         : UTF-8
Codec ID                       : S_TEXT/UTF8
Codec ID/Info                  : UTF-8 Plain Text
Duration                       : 1 h 48 min
Bit rate                       : 57 b/s
Count of elements              : 1384
Stream size                    : 46.0 KiB (0%)
Language                       : Norwegian Bokmal
Default                        : No
Forced                         : No

Text #21
ID                             : 23
Format                         : UTF-8
Codec ID                       : S_TEXT/UTF8
Codec ID/Info                  : UTF-8 Plain Text
Duration                       : 1 h 48 min
Bit rate                       : 57 b/s
Count of elements              : 1389
Stream size                    : 45.9 KiB (0%)
Language                       : Dutch
Default                        : No
Forced                         : No

Text #22
ID                             : 24
Format                         : UTF-8
Codec ID                       : S_TEXT/UTF8
Codec ID/Info                  : UTF-8 Plain Text
Duration                       : 1 h 48 min
Bit rate                       : 56 b/s
Count of elements              : 1488
Stream size                    : 45.2 KiB (0%)
Language                       : Polish
Default                        : No
Forced                         : No

Text #23
ID                             : 25
Format                         : UTF-8
Codec ID                       : S_TEXT/UTF8
Codec ID/Info                  : UTF-8 Plain Text
Duration                       : 1 h 48 min
Bit rate                       : 62 b/s
Count of elements              : 1480
Stream size                    : 49.7 KiB (0%)
Title                          : Portuguese
Language                       : Portuguese
Default                        : No
Forced                         : No

Text #24
ID                             : 26
Format                         : UTF-8
Codec ID                       : S_TEXT/UTF8
Codec ID/Info                  : UTF-8 Plain Text
Duration                       : 1 h 48 min
Bit rate                       : 59 b/s
Count of elements              : 1538
Stream size                    : 47.4 KiB (0%)
Title                          : Brazilian
Language                       : Portuguese
Default                        : No
Forced                         : No

Text #25
ID                             : 27
Format                         : UTF-8
Codec ID                       : S_TEXT/UTF8
Codec ID/Info                  : UTF-8 Plain Text
Duration                       : 1 h 48 min
Bit rate                       : 68 b/s
Count of elements              : 1494
Stream size                    : 54.0 KiB (0%)
Language                       : Romanian
Default                        : No
Forced                         : No

Text #26
ID                             : 28
Format                         : UTF-8
Codec ID                       : S_TEXT/UTF8
Codec ID/Info                  : UTF-8 Plain Text
Duration                       : 1 h 48 min
Bit rate                       : 98 b/s
Count of elements              : 1503
Stream size                    : 78.2 KiB (0%)
Language                       : Russian
Default                        : No
Forced                         : No

Text #27
ID                             : 29
Format                         : UTF-8
Codec ID                       : S_TEXT/UTF8
Codec ID/Info                  : UTF-8 Plain Text
Duration                       : 1 h 48 min
Bit rate                       : 60 b/s
Count of elements              : 1303
Stream size                    : 47.8 KiB (0%)
Language                       : Swedish
Default                        : No
Forced                         : No

Text #28
ID                             : 30
Format                         : UTF-8
Codec ID                       : S_TEXT/UTF8
Codec ID/Info                  : UTF-8 Plain Text
Duration                       : 1 h 48 min
Bit rate                       : 167 b/s
Count of elements              : 1562
Stream size                    : 133 KiB (0%)
Language                       : Thai
Default                        : No
Forced                         : No

Text #29
ID                             : 31
Format                         : UTF-8
Codec ID                       : S_TEXT/UTF8
Codec ID/Info                  : UTF-8 Plain Text
Duration                       : 1 h 48 min
Bit rate                       : 60 b/s
Count of elements              : 1492
Stream size                    : 48.0 KiB (0%)
Language                       : Turkish
Default                        : No
Forced                         : No

Text #30
ID                             : 32
Format                         : UTF-8
Codec ID                       : S_TEXT/UTF8
Codec ID/Info                  : UTF-8 Plain Text
Duration                       : 1 h 48 min
Bit rate                       : 94 b/s
Count of elements              : 1476
Stream size                    : 74.8 KiB (0%)
Language                       : Ukrainian
Default                        : No
Forced                         : No

Text #31
ID                             : 33
Format                         : UTF-8
Codec ID                       : S_TEXT/UTF8
Codec ID/Info                  : UTF-8 Plain Text
Duration                       : 1 h 48 min
Bit rate                       : 97 b/s
Count of elements              : 1484
Stream size                    : 77.2 KiB (0%)
Language                       : Vietnamese
Default                        : No
Forced                         : No

Text #32
ID                             : 34
Format                         : UTF-8
Codec ID                       : S_TEXT/UTF8
Codec ID/Info                  : UTF-8 Plain Text
Duration                       : 1 h 48 min
Bit rate                       : 72 b/s
Count of elements              : 1609
Stream size                    : 57.3 KiB (0%)
Title                          : Simplified
Language                       : Chinese
Default                        : No
Forced                         : No


Text #33
ID                             : 35
Format                         : UTF-8
Codec ID                       : S_TEXT/UTF8
Codec ID/Info                  : UTF-8 Plain Text
Duration                       : 1 h 48 min
Bit rate                       : 59 b/s
Count of elements              : 1508
Stream size                    : 47.5 KiB (0%)
Title                          : Traditional
Language                       : Chinese
Default                        : No
Forced                         : No

  迅雷下载资源速度为零,资源敏感或被和谐时,推荐使用qBittorrent等无限速下载软件,有条件的推荐115更好的下载软件!

下载地址

游客,如果您要查看本帖隐藏内容请回复

游客,如果您要查看本帖隐藏内容请回复





上一篇:在一起 / Together (2021) 4K高清版本下载/9.51GB
下一篇:糖果人 Candyman (2021) 4K高清版本下载/9.55GB
回复

使用道具 举报

942

主题

1003

帖子

8494

积分

超级版主

Rank: 8Rank: 8

积分
8494
 楼主| 发表于 2021-9-16 10:55:46 | 显示全部楼层
QQ图片20210916104618.png QQ图片20210916104651.png QQ图片20210916104840.png
PS:图片截图以压缩
回复 支持 反对

使用道具 举报

2

主题

1684

帖子

4588

积分

4K家园VIP

Rank: 9Rank: 9Rank: 9

积分
4588
发表于 2021-9-16 10:19:47 | 显示全部楼层
回个帖子,下班咯~
回复 支持 反对

使用道具 举报

2

主题

1322

帖子

3988

积分

4K家园VIP

Rank: 9Rank: 9Rank: 9

积分
3988
发表于 2021-9-16 19:11:33 | 显示全部楼层
4K家园资源不错,前排支持
回复 支持 反对

使用道具 举报

0

主题

1289

帖子

3865

积分

4K家园VIP

Rank: 9Rank: 9Rank: 9

积分
3865
发表于 2021-9-18 15:48:57 | 显示全部楼层
没看懂
回复 支持 反对

使用道具 举报

13

主题

1166

帖子

3470

积分

4K家园VIP

Rank: 9Rank: 9Rank: 9

积分
3470
发表于 2021-9-20 18:49:19 | 显示全部楼层
纯粹路过,没任何兴趣,仅仅是看在老用户份上回复一下
回复 支持 反对

使用道具 举报

51

主题

1465

帖子

4215

积分

4K家园VIP

Rank: 9Rank: 9Rank: 9

积分
4215
发表于 2021-10-2 10:48:28 | 显示全部楼层
楼主呀,,,您太有才了。。。
回复 支持 反对

使用道具 举报

您需要登录后才可以回帖 登录 | 立即注册

本版积分规则

精彩图文
Archiver|手机版|TAG|Sitemap|新帖|专题|联系我们:邮箱: 4kjia.com@gmail.com   

4k家园   ©2019