[4K电影] 糖果人 Candyman (2021) 4K高清版本下载/9.55GB

[复制链接]

948

主题

1009

帖子

8533

积分

超级版主

Rank: 8Rank: 8

积分
8533
 楼主| 发表于 2021-9-16 13:53:20 | 显示全部楼层 |阅读模式
本帖最后由 最爱4K哟 于 2021-9-22 10:15 编辑

QQ图片20210916134522_副本.png

◎译  名 糖果人 / 糖魔怪客(港)
◎片  名 Candyman
◎年  代 2021
◎产  地 加拿大 / 美国
◎类  别 惊悚 / 恐怖
◎语  言 英语
◎上映日期 2008-09-04(威尼斯电影节) / 2009-07-31(美国)
◎IMDb评分  6.4/10 from 14873 users
◎IMDb链接  https://www.imdb.com/title/tt9347730/
◎豆瓣评分 6.6/10 from 413 users
◎豆瓣链接 https://movie.douban.com/subject/30389627/
◎片  长 91分钟
◎导  演 尼娅·达科斯塔
◎编  剧 乔丹·皮尔 / 温·罗森菲尔德 / 尼娅·达科斯塔 / 克莱夫·巴克 / 伯纳德·罗斯
◎主  演 叶海亚·阿卜杜勒-迈丁
                   泰柔娜·派丽丝
                   内森·斯图尔特-贾瑞特
                   科尔曼·多明戈
                   凯尔·卡明斯基
                   瓦妮莎·威廉姆斯
                   布莱恩·金
                   米里亚姆·莫斯
                   瑞贝卡·斯宾塞
                   卡尔·克莱蒙斯-霍普金斯
                   马力克·怀特
                   托尼·托德
                   纳迪娅·西姆斯



◎简  介

         影片改编自恐怖小说大师克里夫·巴克的短篇作品,聚焦“糖果人,传说你对镜子说5次他的名字,他就会在倒影中出现,把你杀死”引发的故事。
General
Complete name                  : E:\4K@电影 4K@MVCandyman.2021.2160p.WEB-DL.x265.10bit.HDR.DDP5.1-NOGRP.mkv
Format                         : Matroska
Format version                 : Version 4
File size                      : 9.54 GiB
Duration                       : 1 h 31 min
Overall bit rate               : 15.0 Mb/s
Encoded date                   : UTC 2021-09-16 05:25:27
Writing application            : mkvmerge v61.0.0.25 ('So') 64-bit
Writing library                : libebml v1.4.2 + libmatroska v1.6.4
IsTruncated                    : Yes

Video
ID                             : 1
Format                         : HEVC
Format/Info                    : High Efficiency Video Coding
Format profile                 : Main 10@L5@High
HDR format                     : SMPTE ST 2086, HDR10 compatible
Codec ID                       : V_MPEGH/ISO/HEVC
Duration                       : 1 h 31 min
Bit rate                       : 14.1 Mb/s
Width                          : 3 840 pixels
Height                         : 1 606 pixels
Display aspect ratio           : 2.40:1
Frame rate mode                : Constant
Frame rate                     : 23.976 (24000/1001) FPS
Color space                    : YUV
Chroma subsampling             : 4:2:0 (Type 2)
Bit depth                      : 10 bits
Bits/(Pixel*Frame)             : 0.095
Stream size                    : 8.94 GiB (94%)
Default                        : Yes
Forced                         : No
Color range                    : Limited
Color primaries                : BT.2020
Transfer characteristics       : PQ
Matrix coefficients            : BT.2020 non-constant
Mastering display color primar : Display P3
Mastering display luminance    : min: 0.0050 cd/m2, max: 1000 cd/m2
Maximum Content Light Level    : 524 cd/m2
Maximum Frame-Average Light Le : 256 cd/m2

Audio
ID                             : 2
Format                         : E-AC-3
Format/Info                    : Enhanced AC-3
Commercial name                : Dolby Digital Plus
Codec ID                       : A_EAC3
Duration                       : 1 h 31 min
Bit rate mode                  : Constant
Bit rate                       : 640 kb/s
Channel(s)                     : 6 channels
Channel layout                 : L R C LFE Ls Rs
Sampling rate                  : 48.0 kHz
Frame rate                     : 31.250 FPS (1536 SPF)
Compression mode               : Lossy
Stream size                    : 417 MiB (4%)
Language                       : English
Service kind                   : Complete Main
Default                        : Yes
Forced                         : No

Text #1
ID                             : 3
Format                         : UTF-8
Codec ID                       : S_TEXT/UTF8
Codec ID/Info                  : UTF-8 Plain Text
Title                          : English [SDH]
Language                       : English
Default                        : Yes
Forced                         : No

Text #2
ID                             : 4
Format                         : UTF-8
Codec ID                       : S_TEXT/UTF8
Codec ID/Info                  : UTF-8 Plain Text
Title                          : French Canadian
Language                       : French
Default                        : No
Forced                         : No

Text #3
ID                             : 5
Format                         : UTF-8
Codec ID                       : S_TEXT/UTF8
Codec ID/Info                  : UTF-8 Plain Text
Title                          : Spanish
Language                       : Spanish
Default                        : No
Forced                         : No

迅雷下载资源速度为零,资源敏感或被和谐时,推荐使用qBittorrent等无限速下载软件,有条件的推荐115更好的下载软件!

下载地址

游客,如果您要查看本帖隐藏内容请回复

游客,如果您要查看本帖隐藏内容请回复


外挂中字字幕文件下载:

Candyman.2021.2160p.WEB-DL.DD5.1.HDR.HEVC-CMRG.rar (3.74 MB)

上一篇:派对女孩升天记(内封中字) (2021) 4K高清版本下载/15.58GB
下一篇:人人都在谈论杰米 (2021) 4K高清版本下载/12.59GB
回复

使用道具 举报

4

主题

1380

帖子

3984

积分

4K家园VIP

Rank: 9Rank: 9Rank: 9

积分
3984
发表于 2021-9-16 13:53:25 | 显示全部楼层
路过
回复 支持 反对

使用道具 举报

3

主题

1290

帖子

3888

积分

4K家园VIP

Rank: 9Rank: 9Rank: 9

积分
3888
发表于 2021-9-16 14:29:10 | 显示全部楼层
我只是看看啊,不说话
回复 支持 反对

使用道具 举报

39

主题

1471

帖子

4205

积分

4K家园VIP

Rank: 9Rank: 9Rank: 9

积分
4205
发表于 2021-9-16 18:19:23 | 显示全部楼层
我擦!我要沙发!
回复 支持 反对

使用道具 举报

0

主题

1

帖子

10

积分

新手上路

Rank: 1

积分
10
发表于 2021-9-16 19:42:49 | 显示全部楼层
6666666666666666
回复 支持 反对

使用道具 举报

1

主题

1373

帖子

4133

积分

4K家园VIP

Rank: 9Rank: 9Rank: 9

积分
4133
发表于 2021-9-17 00:24:57 来自手机 | 显示全部楼层
回个帖子,下班咯~
回复 支持 反对

使用道具 举报

37

主题

1444

帖子

4132

积分

4K家园VIP

Rank: 9Rank: 9Rank: 9

积分
4132
发表于 2021-9-17 02:38:24 | 显示全部楼层
好帖必须得顶起
回复 支持 反对

使用道具 举报

0

主题

12

帖子

174

积分

新手上路

Rank: 1

积分
174
发表于 2021-9-18 16:08:55 来自手机 | 显示全部楼层
感谢楼主分享,支持你
回复 支持 反对

使用道具 举报

0

主题

12

帖子

174

积分

新手上路

Rank: 1

积分
174
发表于 2021-9-18 16:09:15 来自手机 | 显示全部楼层
感谢楼主分享,支持你
回复 支持 反对

使用道具 举报

0

主题

1

帖子

6

积分

新手上路

Rank: 1

积分
6
发表于 2021-9-18 20:47:45 | 显示全部楼层
感謝大大無私地分享
第一次使用這個網頁 希望有好的體驗
回复 支持 反对

使用道具 举报

您需要登录后才可以回帖 登录 | 立即注册

本版积分规则

精彩图文
Archiver|手机版|TAG|Sitemap|新帖|专题|联系我们:邮箱: 4kjia.com@gmail.com   

4k家园   ©2019