[4Kjia独享4K资源] 无名旅馆 / The Nowhere Inn (2020) 4K高清版本下载/13.31GB

[复制链接]

948

主题

1009

帖子

8533

积分

超级版主

Rank: 8Rank: 8

积分
8533
 楼主| 发表于 2021-9-17 13:17:40 | 显示全部楼层 |阅读模式
本帖最后由 最爱4K哟 于 2021-9-17 14:19 编辑

QQ图片20210917131300_副本.png

◎译  名 无名旅馆
◎片  名 The Nowhere Inn
◎年  代 2020
◎产  地 美国
◎类  别 剧情 / 音乐
◎语  言 英语
◎上映日期 2020-01-25(圣丹斯电影节)
◎豆瓣评分 /10 from 0 users
◎豆瓣链接 https://movie.douban.com/subject/34907396/
◎编  剧 凯瑞·布朗斯汀 Carrie Brownstein / 圣·文森特 St. Vincent
◎主  演 圣·文森特 St. Vincent
      凯瑞·布朗斯汀 Carrie Brownstein
      克里斯·阿基利诺 Chris Aquilino
      迈克尔·博夫舍维尔 Michael Bofshever
      莱亚·吉斯特德 Rya Kihlstedt
      盖·纳尔杜利 Guy Nardulli
      艾莎·迪伊 Aisha Dee
      约翰·艾尔瓦德 John Aylward
      罗伯特·米亚诺 Robert Miano
      雪伊德林恩 Shae D'lyn
      史蒂夫·兰金 Steve Rankin
      杰克·拉·博兹 Jake La Botz
       Nick Smoke
      Linda Kerns Linda Kerns


◎简  介

  圣文森特打算制作一部关于她的音乐的纪录片,但当她雇佣一位亲密的朋友来导演时,关于现实、身份和真实性的观念变得越来越扭曲和怪异。
General
Complete name                  : E:\4K@电影 4K@MV\The.Nowhere.Inn.2021.2160p.WEB-DL.DD5.1.HEVC-EVO.mkv
Format                         : Matroska
Format version                 : Version 4
File size                      : 12.2 GiB
Duration                       : 1 h 31 min
Overall bit rate               : 19.1 Mb/s
Encoded date                   : UTC 2021-09-17 04:53:07
Writing application            : mkvmerge v19.0.0 ('Brave Captain') 64-bit
Writing library                : libebml v1.3.5 + libmatroska v1.4.8
IsTruncated                    : Yes

Video
ID                             : 1
Format                         : HEVC
Format/Info                    : High Efficiency Video Coding
Format profile                 : Main 10@L5@High
Codec ID                       : V_MPEGH/ISO/HEVC
Duration                       : 1 h 31 min
Bit rate                       : 18.3 Mb/s
Width                          : 3 840 pixels
Height                         : 2 074 pixels
Display aspect ratio           : 1.85:1
Frame rate mode                : Constant
Frame rate                     : 23.976 (24000/1001) FPS
Color space                    : YUV
Chroma subsampling             : 4:2:0
Bit depth                      : 10 bits
Bits/(Pixel*Frame)             : 0.096
Stream size                    : 11.7 GiB (96%)
Default                        : Yes
Forced                         : No
Color range                    : Limited
Color primaries                : BT.709
Transfer characteristics       : BT.709
Matrix coefficients            : BT.709

Audio
ID                             : 2
Format                         : AC-3
Format/Info                    : Audio Coding 3
Commercial name                : Dolby Digital
Codec ID                       : A_AC3
Duration                       : 1 h 31 min
Bit rate mode                  : Constant
Bit rate                       : 384 kb/s
Channel(s)                     : 6 channels
Channel layout                 : L R C LFE Ls Rs
Sampling rate                  : 48.0 kHz
Frame rate                     : 31.250 FPS (1536 SPF)
Compression mode               : Lossy
Stream size                    : 252 MiB (2%)
Title                          : English
Language                       : English
Service kind                   : Complete Main
Default                        : No
Forced                         : No
迅雷下载资源速度为零,资源敏感或被和谐时,推荐使用qBittorrent等无限速下载软件,有条件的推荐115更好的下载软件!

下载地址
****此区域为收费内容****    需支付 9 金币后可查看立即购买





上一篇:人人都在谈论杰米 (2021) 4K高清版本下载/12.59GB
下一篇:幽灵之国的囚徒 (2021) 4K高清版本下载/17.82GB
回复

使用道具 举报

62

主题

1537

帖子

4445

积分

4K家园VIP

Rank: 9Rank: 9Rank: 9

积分
4445
发表于 2021-9-17 13:17:44 | 显示全部楼层
4K应该不错,我也下个看看
回复 支持 反对

使用道具 举报

1

主题

1328

帖子

4002

积分

4K家园VIP

Rank: 9Rank: 9Rank: 9

积分
4002
发表于 2021-9-17 13:46:36 | 显示全部楼层
very good
回复 支持 反对

使用道具 举报

1

主题

1104

帖子

3332

积分

4K家园VIP

Rank: 9Rank: 9Rank: 9

积分
3332
发表于 2021-9-17 15:35:26 | 显示全部楼层
支持,楼下的跟上哈~
回复 支持 反对

使用道具 举报

50

主题

1439

帖子

4089

积分

4K家园VIP

Rank: 9Rank: 9Rank: 9

积分
4089
发表于 2021-9-18 02:20:27 来自手机 | 显示全部楼层
好帖必须得顶起
回复 支持 反对

使用道具 举报

201

主题

1671

帖子

4573

积分

4K家园VIP

Rank: 9Rank: 9Rank: 9

积分
4573
发表于 2021-9-18 03:49:17 | 显示全部楼层
垃圾内容,路过为证。
回复 支持 反对

使用道具 举报

您需要登录后才可以回帖 登录 | 立即注册

本版积分规则

精彩图文
Archiver|手机版|TAG|Sitemap|新帖|专题|联系我们:邮箱: 4kjia.com@gmail.com   

4k家园   ©2019