[4Kjia独享4K资源] 幽灵之国的囚徒 (2021) 4K高清版本下载/17.82GB

[复制链接]

956

主题

1017

帖子

8614

积分

超级版主

Rank: 8Rank: 8

积分
8614
 楼主| 发表于 2021-9-17 14:13:09 | 显示全部楼层 |阅读模式
本帖最后由 最爱4K哟 于 2021-9-17 20:57 编辑

QQ图片20210917140708_副本.png

◎译  名 幽灵之国的囚徒/鬼域的囚徒
◎片  名 Prisoners Of The Ghostland
◎年  代 2021
◎产  地 美国,日本
◎类  别 动作 / 惊悚 / 恐怖
◎语  言 英语
◎上映日期 2021-01-31(圣丹斯电影节) / 2021-09-17(美国网络) / 2021-10-08(日本)
◎IMDb评分  4.6/10 from 1952 users
◎IMDb链接  https://www.imdb.com/title/tt6372694/
◎豆瓣评分 /10 from 0 users
◎豆瓣链接 https://movie.douban.com/subject/30219722/
◎片  长 100分钟
◎导  演 园子温 Shion Sono
◎主  演 尼古拉斯·凯奇 Nicolas Cage
      索菲亚·波多拉 Sofia Boutella
      尼克·卡萨维蒂 Nick Cassavetes
      比尔·莫斯利 Bill Moseley
      坂口拓 Tak Sakaguchi
      小川辉晃 Teruaki Ogawa
      马修·乔齐克 Matthew Chozick
      艾德·斯克林 Ed Skrein
      海 YOUNG DAIS
      栗原类 Louis Kurihara
      周传兮 Chuanxi Zhou
      萝拉 Rola
      特蕾莎·鲁伊斯 Teresa Ruiz
      渡边哲 Tetsu Watanabe
      中屋柚香 Nakaya Yuzuka
      藤丸千 Sen Fujimaru



◎简  介

  故事讲述一名被绑架的女孩([波多拉饰])消失在了黑暗超自然宇宙中,臭名昭著的罪犯英雄(凯奇饰)被派去解救她。他们必须打破束缚他们的邪恶诅咒才能逃避统治鬼域的神秘幽灵。
General
Complete name                  : E:\4K@电影 4K@MV\Prisoners.of.the.Ghostland.2021.2160p.WEB-DL.DD5.1.HDR.HEVC-EVO.mkv
Format                         : Matroska
Format version                 : Version 4
File size                      : 17.7 GiB
Duration                       : 1 h 42 min
Overall bit rate               : 24.7 Mb/s
Encoded date                   : UTC 2021-09-17 04:08:35
Writing application            : mkvmerge v19.0.0 ('Brave Captain') 64-bit
Writing library                : libebml v1.3.5 + libmatroska v1.4.8
IsTruncated                    : Yes

Video
ID                             : 1
Format                         : HEVC
Format/Info                    : High Efficiency Video Coding
Format profile                 : Main 10@L5@High
HDR format                     : SMPTE ST 2086, HDR10 compatible
Codec ID                       : V_MPEGH/ISO/HEVC
Duration                       : 1 h 42 min
Bit rate                       : 23.8 Mb/s
Width                          : 3 832 pixels
Height                         : 1 592 pixels
Display aspect ratio           : 2.40:1
Frame rate mode                : Constant
Frame rate                     : 23.976 (24000/1001) FPS
Color space                    : YUV
Chroma subsampling             : 4:2:0 (Type 2)
Bit depth                      : 10 bits
Bits/(Pixel*Frame)             : 0.163
Stream size                    : 17.1 GiB (96%)
Default                        : Yes
Forced                         : No
Color range                    : Limited
Color primaries                : BT.2020
Transfer characteristics       : PQ
Matrix coefficients            : BT.2020 non-constant
Mastering display color primar : Display P3
Mastering display luminance    : min: 0.0001 cd/m2, max: 1000 cd/m2
Maximum Content Light Level    : 1017 cd/m2
Maximum Frame-Average Light Le : 398 cd/m2

Audio
ID                             : 2
Format                         : AC-3
Format/Info                    : Audio Coding 3
Commercial name                : Dolby Digital
Codec ID                       : A_AC3
Duration                       : 1 h 42 min
Bit rate mode                  : Constant
Bit rate                       : 384 kb/s
Channel(s)                     : 6 channels
Channel layout                 : L R C LFE Ls Rs
Sampling rate                  : 48.0 kHz
Frame rate                     : 31.250 FPS (1536 SPF)
Compression mode               : Lossy
Stream size                    : 282 MiB (2%)
Title                          : English
Language                       : English
Service kind                   : Complete Main
Default                        : No
Forced                         : No

迅雷下载资源速度为零,资源敏感或被和谐时,推荐使用qBittorrent等无限速下载软件,有条件的推荐115更好的下载软件!

****此区域为收费内容****    需支付 9 金币后可查看立即购买

游客,如果您要查看本帖隐藏内容请回复

游客,如果您要查看本帖隐藏内容请回复






上一篇:无名旅馆 / The Nowhere Inn (2020) 4K高清版本下载/13.31GB
下一篇:最佳销售员 / Best Sellers (2021) 4K高清版本下载/17.59GB
回复

使用道具 举报

56

主题

1487

帖子

4317

积分

4K家园VIP

Rank: 9Rank: 9Rank: 9

积分
4317
发表于 2021-9-17 14:13:14 | 显示全部楼层
支持一下楼主发表的内容
回复 支持 反对

使用道具 举报

0

主题

167

帖子

1017

积分

注册会员

Rank: 2

积分
1017
发表于 2021-9-17 21:15:07 | 显示全部楼层
谢谢楼主的分享
回复 支持 反对

使用道具 举报

46

主题

1413

帖子

4075

积分

4K家园VIP

Rank: 9Rank: 9Rank: 9

积分
4075
发表于 2021-9-18 02:56:54 | 显示全部楼层
我也顶起出售广告位
回复 支持 反对

使用道具 举报

37

主题

1445

帖子

4135

积分

4K家园VIP

Rank: 9Rank: 9Rank: 9

积分
4135
发表于 2021-9-18 04:40:05 | 显示全部楼层
感谢楼主的分享,还是阔以滴
回复 支持 反对

使用道具 举报

6

主题

1165

帖子

3519

积分

4K家园VIP

Rank: 9Rank: 9Rank: 9

积分
3519
发表于 2021-9-18 08:22:27 | 显示全部楼层
大人,此事必有蹊跷!
回复 支持 反对

使用道具 举报

49

主题

1418

帖子

4080

积分

4K家园VIP

Rank: 9Rank: 9Rank: 9

积分
4080
发表于 2021-9-18 22:29:59 | 显示全部楼层
嘘,低调。
回复 支持 反对

使用道具 举报

0

主题

38

帖子

269

积分

新手上路

Rank: 1

积分
269
发表于 2021-9-19 17:55:45 | 显示全部楼层
谢谢分享
回复

使用道具 举报

0

主题

27

帖子

203

积分

新手上路

Rank: 1

积分
203
发表于 2021-9-21 13:57:16 | 显示全部楼层
凯奇在乱拍烂片。。
回复 支持 反对

使用道具 举报

0

主题

4

帖子

19

积分

新手上路

Rank: 1

积分
19
发表于 2021-9-21 14:54:22 | 显示全部楼层
wwfwfsdfdsfsdfdsfsdf
回复 支持 反对

使用道具 举报

您需要登录后才可以回帖 登录 | 立即注册

本版积分规则

精彩图文
Archiver|手机版|TAG|Sitemap|新帖|专题|联系我们:邮箱: 4kjia.com@gmail.com   

4k家园   ©2019