[4K电影] 最佳销售员 / Best Sellers (2021) 4K高清版本下载/17.59GB

[复制链接]

201

主题

1671

帖子

4573

积分

4K家园VIP

Rank: 9Rank: 9Rank: 9

积分
4573
 楼主| 发表于 2021-9-17 20:48:07 | 显示全部楼层 |阅读模式
QQ图片20210917204427_副本.png

◎译  名 最佳销售员
◎片  名 Best Sellers
◎年  代 2021
◎产  地 加拿大,美国
◎类  别 剧情 / 喜剧
◎语  言 英语
◎上映日期 2021-09-17(加拿大)
◎IMDb评分  6.1/10 from 386 users
◎IMDb链接  https://www.imdb.com/title/tt10339052/
◎豆瓣评分 /10 from 0 users
◎豆瓣链接 https://movie.douban.com/subject/33447900/
◎片  长 100分钟
◎导  演 丽娜·罗斯勒 Lina Roessler
◎主  演 迈克尔·凯恩 Michael Caine
      奥布瑞·普拉扎 Aubrey Plaza
      加利·艾尔维斯 Cary Elwes
      斯科特·斯比德曼 Scott Speedman
      艾伦·王 Ellen Wong
      维罗尼卡·费瑞尔 Veronica Ferres
      维多利亚·桑切斯 Victoria Sanchez
      伊拉娜·盖尔 Elana Gale
      弗兰克·萧宾 Frank Schorpion
      Elisabeth Etienne Elisabeth Etienne



◎简  介

  故事改编自安东尼·格里科(Anthony Grieco)原著剧本,讲述为了挽救一家精品出版社,一位雄心勃勃的年轻编辑(普拉扎饰)与一位作家(凯恩饰)上演了一场狂野的售书之旅。而这名作家一直只是想与苏格兰威士忌、雪茄与虎斑猫过自己的日子。

Video
ID : 1
Format : HEVC
Format/Info : High Efficiency Video Coding
Format profile : Main 10@L5@High
Codec ID : V_MPEGH/ISO/HEVC
Duration : 1 h 42 min
Bit rate : 11.9 Mb/s
Width : 3 836 pixels
Height : 1 600 pixels
Display aspect ratio : 2.40:1
Original display aspect ratio : 2.40:1
Frame rate mode : Constant
Frame rate : 23.976 FPS
Color space : YUV
Chroma subsampling : 4:2:0
Bit depth : 10 bits
Bits/(Pixel*Frame) : 0.081
Stream size : 8.49 GiB (97%)
Language : English
Default : Yes
Forced : No
Color range : Limited
Color primaries : BT.709
Transfer characteristics : BT.709
Matrix coefficients : BT.709

Audio
ID : 2
Format : AC-3
Format/Info : Audio Coding 3
Commercial name : Dolby Digital
Codec ID : A_AC3
Duration : 1 h 42 min
Bit rate mode : Constant
Bit rate : 384 kb/s
Channel(s) : 6 channels
Channel layout : L R C LFE Ls Rs
Sampling rate : 48.0 kHz
Frame rate : 31.250 FPS (1536 SPF)
Compression mode : Lossy
Stream size : 281 MiB (3%)
Title : English
Language : English
Service kind : Complete Main
Default : Yes
Forced : No

Text
ID : 3
Format : UTF-8
Codec ID : S_TEXT/UTF8
Codec ID/Info : UTF-8 Plain Text
Duration : 1 h 34 min
Bit rate : 59 b/s
Count of elements : 1490
Stream size : 41.6 KiB (0%)
Language : English
Default : Yes
Forced : No



下载地址:

最佳销售员(17.59GB)Best.Sellers.2021.2160p.WEB-DL.x265.10bit.HDR.DD5.1-NOGRP.t.torrent (22.62 KB, 售价: 9 金币)

上一篇:幽灵之国的囚徒 (2021) 4K高清版本下载/17.82GB
下一篇:哭泣的男人 / Cry Macho (2021) 4K高清版本下载/13.17GB
回复

使用道具 举报

0

主题

1337

帖子

3845

积分

中级会员

Rank: 4

积分
3845
发表于 2021-9-17 20:48:11 来自手机 | 显示全部楼层
垃圾
回复 支持 反对

使用道具 举报

2

主题

1299

帖子

3717

积分

4K家园VIP

Rank: 9Rank: 9Rank: 9

积分
3717
发表于 2021-9-18 19:52:23 | 显示全部楼层
发发呆,回回帖,工作结束~
回复 支持 反对

使用道具 举报

53

主题

1508

帖子

4296

积分

4K家园VIP

Rank: 9Rank: 9Rank: 9

积分
4296
发表于 2021-9-19 01:53:04 | 显示全部楼层
楼猪V5啊
回复 支持 反对

使用道具 举报

0

主题

1279

帖子

3849

积分

4K家园VIP

Rank: 9Rank: 9Rank: 9

积分
3849
发表于 2021-9-20 06:49:19 | 显示全部楼层
没明白
回复 支持 反对

使用道具 举报

0

主题

25

帖子

80

积分

新手上路

Rank: 1

积分
80
发表于 2021-9-20 08:07:32 | 显示全部楼层
谢谢楼主分享
回复 支持 反对

使用道具 举报

3

主题

1326

帖子

3996

积分

4K家园VIP

Rank: 9Rank: 9Rank: 9

积分
3996
发表于 2021-9-20 21:05:32 | 显示全部楼层
支持,赞一个
回复 支持 反对

使用道具 举报

您需要登录后才可以回帖 登录 | 立即注册

本版积分规则

精彩图文
Archiver|手机版|TAG|Sitemap|新帖|专题|联系我们:邮箱: 4kjia.com@gmail.com   

4k家园   ©2019