[4K电影] Adams.Package (2021) 4K高清版本下载/6.94GB

[复制链接]

30

主题

1176

帖子

3506

积分

4K家园VIP

Rank: 9Rank: 9Rank: 9

积分
3506
 楼主| 发表于 2021-9-18 13:58:49 | 显示全部楼层 |阅读模式
QQ图片20210918134425_副本.png

◎片  名 Adams.Package
◎年  代 2021
◎产  地 美国
◎类  别 喜剧
◎语  言 英语
◎上映日期 2021(美国)
◎IMDb评分  0/10 from 0 users
◎IMDb链接  https://www.imdb.com/title/tt10248344/
◎豆瓣评分 /10 from 0 users
◎豆瓣链接 ?
◎片  长 81分钟
◎导  演 安德鲁·基亚拉蒙特
◎编  剧 埃米特·阿尔斯通(合著者)Andrew Chiaramonte (合著者)
◎主  演 安德鲁·罗杰斯
                   瑟琳娜·亨德里克斯
                   谢伊丹尼森
                   拉梅尔
                   蒂姆·莫伦
                   拉希达·迪瓦·沙巴兹
                   艾米纽曼
                   阿拉娜·马泰斯
                   弗兰克·G·卢比奥
                   佐克拉米尔本
                   乔瓦尼·纳瓦罗
                   安东尼·约瑟夫·迪卡洛
                   汤姆·科彻
                   艾恩博伊德
                   大卫·梅萨
                   科里·科赫
                   杰西卡·韦纳
                   科琳·哈特


◎简  介

      亚当是一个过着好莱坞大块头生活的外星人,只是他不知道。他作为一名男模赚取了丰厚的收入,而且他被一群美丽的女人所吸引,其中包括一个在他的公寓里出没的性感鬼魂。在他地下室发现的绝密 UFO 文件使他处于危险之中。影子政府的工作人员希望他死,他的前妻也是为了保险金。在好莱坞作为外星模特生活肯定有问题。
Video
ID : 1
Format : HEVC
Format/Info : High Efficiency Video Coding
Format profile : Main 10@L5@High
Codec ID : V_MPEGH/ISO/HEVC
Duration : 1 h 21 min
Bit rate : 12.0 Mb/s
Width : 3 836 pixels
Height : 2 156 pixels
Display aspect ratio : 16:9
Frame rate mode : Constant
Frame rate : 24.000 FPS
Color space : YUV
Chroma subsampling : 4:2:0
Bit depth : 10 bits
Bits/(Pixel*Frame) : 0.061
Stream size : 6.85 GiB (99%)
Default : Yes
Forced : No
Color range : Limited
Color primaries : BT.709
Transfer characteristics : BT.709
Matrix coefficients : BT.709

Audio
ID : 2
Format : AAC LC
Format/Info : Advanced Audio Codec Low Complexity
Codec ID : A_AAC-2
Duration : 1 h 21 min
Bit rate : 153 kb/s
Channel(s) : 2 channels
Channel layout : L R
Sampling rate : 48.0 kHz
Frame rate : 46.875 FPS (1024 SPF)
Compression mode : Lossy
Stream size : 89.1 MiB (1%)
Title : English
Language : English
Default : No
Forced : No

Text
ID : 3
Format : UTF-8
Codec ID : S_TEXT/UTF8
Codec ID/Info : UTF-8 Plain Text
Duration : 1 h 19 min
Bit rate : 64 b/s
Count of elements : 1048
Stream size : 37.5 KiB (0%)
Language : English
Default : Yes
Forced : No

下载地址

Adams.Package.2021.2160p.WEB-DL.x265.10bit.SDR.AAC2.0-NOGRP.torrent (18 KB, 售价: 9 金币)

上一篇:哭泣的男人 / Cry Macho (2021) 4K高清版本下载/13.17GB
下一篇:People Just Do Nothing: Big in Japan (2020) 4K高清版本下载/10.01GB
回复

使用道具 举报

2

主题

1644

帖子

4536

积分

4K家园VIP

Rank: 9Rank: 9Rank: 9

积分
4536
发表于 2021-9-18 13:58:53 | 显示全部楼层
看起来好像不错的样子
回复 支持 反对

使用道具 举报

54

主题

1520

帖子

4348

积分

4K家园VIP

Rank: 9Rank: 9Rank: 9

积分
4348
发表于 2021-9-18 14:36:34 | 显示全部楼层
支持一下楼主发表的内容
回复 支持 反对

使用道具 举报

56

主题

1486

帖子

4314

积分

4K家园VIP

Rank: 9Rank: 9Rank: 9

积分
4314
发表于 2021-9-19 02:18:16 | 显示全部楼层
啊啊啊啊啊啊啊啊啊啊啊
回复 支持 反对

使用道具 举报

2

主题

1286

帖子

3874

积分

4K家园VIP

Rank: 9Rank: 9Rank: 9

积分
3874
发表于 2021-9-19 03:09:13 | 显示全部楼层
感谢分享
回复 支持 反对

使用道具 举报

50

主题

1414

帖子

4144

积分

4K家园VIP

Rank: 9Rank: 9Rank: 9

积分
4144
发表于 2021-9-19 06:45:22 | 显示全部楼层
围观 围观 沙发在哪里!!!
回复 支持 反对

使用道具 举报

0

主题

25

帖子

80

积分

新手上路

Rank: 1

积分
80
发表于 2021-9-20 08:07:19 | 显示全部楼层
谢谢楼主分享
回复 支持 反对

使用道具 举报

您需要登录后才可以回帖 登录 | 立即注册

本版积分规则

精彩图文
Archiver|手机版|TAG|Sitemap|新帖|专题|联系我们:邮箱: 4kjia.com@gmail.com   

4k家园   ©2019