[4K电影] 皮囊之下 / Under the Skin (2013) 4K高清版本下载/20.54GB

[复制链接]

30

主题

1176

帖子

3506

积分

4K家园VIP

Rank: 9Rank: 9Rank: 9

积分
3506
 楼主| 发表于 2021-9-21 14:58:18 | 显示全部楼层 |阅读模式
本帖最后由 最爱4K哟 于 2021-10-5 21:17 编辑

QQ图片20210921145202_副本.png

◎译  名 皮囊之下/皮下之慌(港)
◎片  名 Under the Skin
◎年  代 2013
◎国  家 英国/美国/瑞士
◎类  别 剧情/科幻/惊悚
◎语  言 英语
◎上映日期 2013-09-03(威尼斯电影节)/2014-03-14(英国)
◎IMDB评分  6.3/10 from 135622 users
◎IMDB链接  http://www.imdb.com/title/tt1441395/
◎豆瓣评分 6.3/10 from 39813users
◎豆瓣链接   https://movie.douban.com/subject/3749974/
◎片  长 101 MiN
◎导  演 乔纳森·格雷泽 Jonathan Glazer
◎主  演 斯嘉丽·约翰逊 Scarlett Johansson
      保罗·布兰尼根 Paul Brannigan
      安东尼娅·坎贝尔-.. Antonia Campbell-H..
      克里斯托弗·哈德克 Krystof Hádek
      斯考特·戴芒德 Scott Dymond
      Michael Moreland
      Jeremy McWilliams
      Jessica Mance
      罗伯特J·古德温 Robert J. Goodwin


◎简  介

  不知从何时起,萧索的苏格兰街头出现了一个神秘女子(斯嘉丽·约翰逊 Scarlett Johansson 饰),她身着皮草,驾驶一辆汽车,不苟言笑的面庞隐约间弥散着摄人魅力。她时不时地与路边的男人搭讪,向他们问路,间或载着相中的男人同归。她走向黑暗的劲头,被欲望支配的男人们紧随其后,却全然未能觉察自己步入了怎样的深渊。男人有如飞蛾扑火,被抽取了骨血,只剩空空皮囊,薄如蝉翼。直到某个晚上,女人搭载了一个相貌极其丑陋的男子。他宛如怪物一般,自知丑陋而深深隐藏自己。女人如往常一样接纳了他,而从第二天起,似乎女人发现自己在悄悄发生着变化。她发现了这幅皮囊的可欣赏之处,享受作为女人的乐趣,却几乎忘记了本来的面目……
  本片根据米歇尔·法贝尔(Michel Faber)的小说改编。

◎幕  后

  《皮囊之下》由曾执导过《性感野兽》《重生》的乔纳森·格雷泽(Jonathan Glazer)担当导演和编剧,得到了英国电影学会补助基金中最大的一笔——280万美元。英国导演格雷泽并不是一个高产导演,但每次出手都颇为不凡,2000年的《性感野兽》为他赢得了美国独立电影奖、金卫星奖和英国电影学院奖最佳英国导演提名,2004年,他与好莱坞巨星妮可·基德曼合作的《重生》,则顺利入围威尼斯电影节主竞赛单元,但没有得到任何奖项。《皮囊之下》是乔纳森·格雷泽第二次登陆水城,角逐金狮大奖。

◎花  絮

  ·原著作者米歇尔·法柏(Michel Faber)生于荷兰,目前定居在苏格兰。法柏本人强调如果把小说搬上银幕必须在苏格兰的高地取景。
  ·《皮囊之下》是乔纳森·格雷泽继04年《重生》隔九年之后的新作,也是继《重生》之后第二次登陆威尼斯电影节,角逐金狮大奖。

◎获奖情况

第70届威尼斯电影节 (2013) 
金狮奖(提名) 乔纳森·格雷泽

第57届伦敦电影节 (2013)  
最佳影片(提名) 乔纳森·格雷泽

第16届英国独立电影奖 (2013)

最佳导演(提名) 乔纳森·格雷泽
最佳女主角(提名) 斯嘉丽·约翰逊
技术成就奖(提名)

Video
ID : 1
Format : HEVC
Format/Info : High Efficiency Video Coding
Format profile : Main 10@L5@High
HDR format : SMPTE ST 2086, HDR10 compatible
Codec ID : V_MPEGH/ISO/HEVC
Duration : 1 h 48 min
Bit rate : 23.6 Mb/s
Width : 3 836 pixels
Height : 2 112 pixels
Display aspect ratio : 16:9
Frame rate mode : Constant
Frame rate : 23.976 FPS
Color space : YUV
Chroma subsampling : 4:2:0 (Type 2)
Bit depth : 10 bits
Bits/(Pixel*Frame) : 0.122
Stream size : 17.9 GiB (87%)
Default : Yes
Forced : No
Color range : Limited
Color primaries : BT.2020
Transfer characteristics : PQ
Matrix coefficients : BT.2020 non-constant
Mastering display color primaries : Display P3
Mastering display luminance : min: 0.0050 cd/m2, max: 1000 cd/m2
Maximum Content Light Level : 1335 cd/m2
Maximum Frame-Average Light Level : 680 cd/m2

Audio #1
ID : 2
Format : DTS XLL
Format/Info : Digital Theater Systems
Commercial name : DTS-HD Master Audio
Codec ID : A_DTS
Duration : 1 h 48 min
Bit rate mode : Variable
Bit rate : 3 150 kb/s
Channel(s) : 6 channels
Channel layout : C L R Ls Rs LFE
Sampling rate : 48.0 kHz
Frame rate : 93.750 FPS (512 SPF)
Bit depth : 24 bits
Compression mode : Lossless
Delay relative to video : 5 ms
Stream size : 2.38 GiB (12%)
Title : DTS-HD MA 5.1
Language : English
Default : Yes
Forced : No

Audio #2
ID : 3
Format : AC-3
Format/Info : Audio Coding 3
Commercial name : Dolby Digital
Codec ID : A_AC3
Duration : 1 h 48 min
Bit rate mode : Constant
Bit rate : 384 kb/s
Channel(s) : 6 channels
Channel layout : L R C LFE Ls Rs
Sampling rate : 48.0 kHz
Frame rate : 31.250 FPS (1536 SPF)
Compression mode : Lossy
Stream size : 297 MiB (1%)
Title : DD 5.1
Language : English
Service kind : Complete Main
Default : No
Forced : No

Text #1
ID : 4
Format : UTF-8
Codec ID : S_TEXT/UTF8
Codec ID/Info : UTF-8 Plain Text
Duration : 1 h 26 min
Bit rate : 14 b/s
Count of elements : 291
Stream size : 9.21 KiB (0%)
Language : English
Default : Yes
Forced : No



Text #2
ID : 5
Format : UTF-8
Codec ID : S_TEXT/UTF8
Codec ID/Info : UTF-8 Plain Text
Duration : 1 h 34 min
Bit rate : 18 b/s
Count of elements : 399
Stream size : 12.6 KiB (0%)
Title : SDH
Language : English
Default : No
Forced : No

Menu
00:00:00.000 : Chapter 1
00:09:00.000 : Chapter 2
00:22:46.000 : Chapter 3
00:31:55.000 : Chapter 4
00:42:16.000 : Chapter 5
00:50:21.000 : Chapter 6
00:59:55.000 : Chapter 7
01:07:36.000 : Chapter 8
01:18:57.000 : Chapter 9
01:26:45.000 : Chapter 10
01:33:15.000 : Chapter 11
01:42:21.000 : Chapter 12

下载链接

游客,如果您要查看本帖隐藏内容请回复

游客,如果您要查看本帖隐藏内容请回复

游客,如果您要查看本帖隐藏内容请回复




上一篇:People Just Do Nothing: Big in Japan (2020) 4K高清版本下载/10.01GB
下一篇:活死人之夜 / Night of the Animated Dead (2021) 4K高清版本下载/5.08GB
回复

使用道具 举报

2

主题

1322

帖子

3988

积分

4K家园VIP

Rank: 9Rank: 9Rank: 9

积分
3988
发表于 2021-9-21 14:58:23 | 显示全部楼层
秀起来~
回复 支持 反对

使用道具 举报

1

主题

1289

帖子

3893

积分

4K家园VIP

Rank: 9Rank: 9Rank: 9

积分
3893
发表于 2021-9-21 20:21:37 来自手机 | 显示全部楼层
支持一下楼主,顶起来
回复 支持 反对

使用道具 举报

1

主题

1338

帖子

3822

积分

4K家园VIP

Rank: 9Rank: 9Rank: 9

积分
3822
发表于 2021-9-21 22:23:06 | 显示全部楼层
体验下4K版的
回复 支持 反对

使用道具 举报

1

主题

1315

帖子

3961

积分

4K家园VIP

Rank: 9Rank: 9Rank: 9

积分
3961
发表于 2021-9-22 08:03:17 | 显示全部楼层
元芳你怎么看?
回复 支持 反对

使用道具 举报

3

主题

1324

帖子

3990

积分

4K家园VIP

Rank: 9Rank: 9Rank: 9

积分
3990
发表于 2021-9-22 09:01:28 | 显示全部楼层
珍爱生命,果断回帖。
回复 支持 反对

使用道具 举报

您需要登录后才可以回帖 登录 | 立即注册

本版积分规则

精彩图文
Archiver|手机版|TAG|Sitemap|新帖|专题|联系我们:邮箱: 4kjia.com@gmail.com   

4k家园   ©2019