[4K电影] 活死人之夜 / Night of the Animated Dead (2021) 4K高清版本下载/5.08GB

[复制链接]

8

主题

1127

帖子

3347

积分

4K家园VIP

Rank: 9Rank: 9Rank: 9

积分
3347
 楼主| 发表于 2021-9-21 15:13:23 | 显示全部楼层 |阅读模式
本帖最后由 最爱4K哟 于 2021-9-22 10:02 编辑

QQ图片20210921150513_副本.png

◎译  名 活死人之夜 / 活死人之夜动画版
◎片  名 Night of the Animated Dead
◎年  代 2021
◎国  家 美国
◎类  别 动画 / 恐怖
◎语  言 英语
◎上映日期 1959-07-01
◎IMDb评分  0/10 from 0 users
◎IMDb链接  https://www.imdb.com/title/tt14961110/
◎豆瓣评分 0/10 from 0 users
◎豆瓣链接 https://movie.douban.com/subject/35512470/
◎片  长 分钟
◎导  演 Jason Axinn
◎主  演 乔什·杜哈明
                     杜勒·希尔
                     凯瑟琳·伊莎贝尔
                     詹姆斯·罗德
                     凯缇·萨克霍夫
                     威尔·萨索
                     吉米·辛普森
                     南希·特拉维斯



◎简  介
   

         乔治·A·罗梅罗经典恐怖片[活死人之夜]将被翻拍为动画影片!杰森·阿克辛执导,乔什·杜哈明、杜勒·希尔、凯瑟琳·伊莎贝尔、詹姆斯·罗德、凯缇·萨克霍夫、威尔·萨索、吉米·辛普森、南希·特拉维斯配音。原版电影节以神秘丧尸复活为背景,讲述本、芭芭拉与其他五个人被困在宾州一处农庄,努力求生的故事。
General
Complete name                  : Night.of.the.Animated.Dead.2021.2160p.WEBRip.x265.10bit.HDR.DDP5.1-NOGRP.mkv
Format                         : Matroska
Format version                 : Version 4
File size                      : 4.91 GiB
Duration                       : 1 h 10 min
Overall bit rate               : 9 941 kb/s
Encoded date                   : UTC 2021-09-20 23:45:39
Writing application            : mkvmerge v42.0.0 ('Overtime') 64-bit
Writing library                : libebml v1.3.10 + libmatroska v1.5.2
IsTruncated                    : Yes

Video
ID                             : 1
Format                         : HEVC
Format/Info                    : High Efficiency Video Coding
Format profile                 : Main 10@L5.1@Main
HDR format                     : SMPTE ST 2086, HDR10 compatible
Codec ID                       : V_MPEGH/ISO/HEVC
Duration                       : 1 h 10 min
Bit rate                       : 9 487 kb/s
Width                          : 3 840 pixels
Height                         : 2 160 pixels
Display aspect ratio           : 16:9
Frame rate mode                : Constant
Frame rate                     : 23.976 (23976/1000) FPS
Color space                    : YUV
Chroma subsampling             : 4:2:0
Bit depth                      : 10 bits
Bits/(Pixel*Frame)             : 0.048
Stream size                    : 4.68 GiB (95%)
Writing library                : x265 3.0:[Linux][GCC 8.3.0][64 bit] 10bit
Encoding settings              : cpuid=1111039 / frame-threads=3 / wpp / no-pmode / no-pme / no-psnr / no-ssim / log-level=2 / input-csp=1 / input-res=3840x2160 / interlace=0 / total-frames=0 / level-idc=51 / high-tier=1 / uhd-bd=0 / ref=2 / no-allow-non-conformance / repeat-headers / annexb / no-aud / no-hrd / info / hash=0 / no-temporal-layers / no-open-gop / min-keyint=24 / keyint=48 / gop-lookahead=0 / bframes=3 / b-adapt=0 / no-b-pyramid / bframe-bias=0 / rc-lookahead=15 / lookahead-slices=8 / scenecut=0 / radl=0 / no-splice / no-intra-refresh / ctu=64 / min-cu-size=8 / no-rect / no-amp / max-tu-size=32 / tu-inter-depth=1 / tu-intra-depth=1 / limit-tu=0 / rdoq-level=0 / dynamic-rd=0.00 / no-ssim-rd / signhide / no-tskip / nr-intra=0 / nr-inter=0 / no-constrained-intra / strong-intra-smoothing / max-merge=2 / limit-refs=3 / no-limit-modes / me=1 / subme=2 / merange=57 / temporal-mvp / weightp / no-weightb / no-analyze-src-pics / deblock=0:0 / sao / no-sao-non-deblock / rd=2 / early-skip / rskip / fast-intra / no-tskip-fast / no-cu-lossless / no-b-intra / no-splitrd-skip / rdpenalty=0 / psy-rd=2.00 / psy-rdoq=0.00 / no-rd-refine / no-lossless / cbqpoffs=0 / crqpoffs=0 / rc=cbr / bitrate=11440 / qcomp=0.60 / qpstep=4 / stats-write=0 / stats-read=0 / vbv-maxrate=11440 / vbv-bufsize=22440 / vbv-init=0.9 / ipratio=1.40 / pbratio=1.30 / aq-mode=2 / aq-strength=1.00 / cutree / zone-count=0 / no-strict-cbr / qg-size=32 / no-rc-grain / qpmax=69 / qpmin=0 / no-const-vbv / sar=1 / overscan=0 / videoformat=5 / range=0 / colorprim=9 / transfer=16 / colormatrix=9 / chromaloc=0 / display-window=0 / master-display=G(8500,39850)B(6550,2300)R(35400,14600)WP(15635,16450)L(10000000,1) / max-cll=963,127 / min-luma=0 / max-luma=1023 / log2-max-poc-lsb=8 / vui-timing-info / vui-hrd-info / slices=1 / no-opt-qp-pps / no-opt-ref-list-length-pps / no-multi-pass-opt-rps / scenecut-bias=0.05 / no-opt-cu-delta-qp / no-aq-motion / hdr / no-hdr-opt / no-dhdr10-opt / no-idr-recovery-sei / analysis-reuse-level=5 / scale-factor=0 / refine-intra=0 / refine-inter=0 / refine-mv=0 / refine-ctu-distortion=0 / no-limit-sao / ctu-info=0 / no-lowpass-dct / refine-analysis-type=0 / copy-pic=1 / max-ausize-factor=1.0 / no-dynamic-refine / no-single-sei / no-hevc-aq / qp-adaptation-range=1.00
Default                        : Yes
Forced                         : No
Color range                    : Limited
Color primaries                : BT.2020
Transfer characteristics       : PQ
Matrix coefficients            : BT.2020 non-constant
Mastering display color primar : BT.2020
Mastering display luminance    : min: 0.0001 cd/m2, max: 1000 cd/m2
Maximum Content Light Level    : 963 cd/m2
Maximum Frame-Average Light Le : 127 cd/m2

Audio
ID                             : 2
Format                         : E-AC-3
Format/Info                    : Enhanced AC-3
Commercial name                : Dolby Digital Plus
Codec ID                       : A_EAC3
Duration                       : 1 h 10 min
Bit rate mode                  : Constant
Bit rate                       : 256 kb/s
Channel(s)                     : 6 channels
Channel layout                 : L R C LFE Ls Rs
Sampling rate                  : 48.0 kHz
Frame rate                     : 31.250 FPS (1536 SPF)
Compression mode               : Lossy
Stream size                    : 129 MiB (3%)
Language                       : English
Service kind                   : Complete Main
Default                        : No
Forced                         : No

Text
ID                             : 3
Format                         : UTF-8
Codec ID                       : S_TEXT/UTF8
Codec ID/Info                  : UTF-8 Plain Text
Title                          : eng_Full
Language                       : English
Default                        : No
Forced                         : No


下载地址:

活死人之夜(5.08GB)Night.of.the.Animated.Dead.2021.2160p.WEBRip.x265.10bit.HDR..torrent (13.35 KB, 售价: 9 金币)

上一篇:皮囊之下 / Under the Skin (2013) 4K高清版本下载/20.54GB
下一篇:门徒 / The Protégé (2021) 4K高清版本下载/16.11GB
回复

使用道具 举报

2

主题

1138

帖子

3434

积分

4K家园VIP

Rank: 9Rank: 9Rank: 9

积分
3434
发表于 2021-9-21 15:13:27 | 显示全部楼层
分享的不错,希望楼主继续分享
回复 支持 反对

使用道具 举报

0

主题

161

帖子

978

积分

新手上路

Rank: 1

积分
978
发表于 2021-9-21 19:48:12 | 显示全部楼层
这东西我收了!谢谢楼主
回复 支持 反对

使用道具 举报

2

主题

1363

帖子

3939

积分

中级会员

Rank: 4

积分
3939
发表于 2021-9-21 20:38:03 | 显示全部楼层
高手啊
回复 支持 反对

使用道具 举报

0

主题

1636

帖子

4458

积分

4K家园VIP

Rank: 9Rank: 9Rank: 9

积分
4458
发表于 2021-9-22 06:48:26 | 显示全部楼层
无论是不是沙发都得回复下
回复 支持 反对

使用道具 举报

1

主题

1620

帖子

4516

积分

4K家园VIP

Rank: 9Rank: 9Rank: 9

积分
4516
发表于 2021-9-22 08:52:38 来自手机 | 显示全部楼层
楼猪V5啊
回复 支持 反对

使用道具 举报

4

主题

1186

帖子

3586

积分

4K家园VIP

Rank: 9Rank: 9Rank: 9

积分
3586
发表于 2021-9-23 13:47:44 | 显示全部楼层
支持一下楼主,顶起来
回复 支持 反对

使用道具 举报

您需要登录后才可以回帖 登录 | 立即注册

本版积分规则

精彩图文
Archiver|手机版|TAG|Sitemap|新帖|专题|联系我们:邮箱: 4kjia.com@gmail.com   

4k家园   ©2019