九个完美陌生人 / 第一季全8集 (2021) 4K高清下载

[复制链接]

31

主题

35

帖子

368

积分

版主

Rank: 7Rank: 7Rank: 7

积分
368
 楼主| 发表于 2021-9-22 21:15:36 | 显示全部楼层 |阅读模式
本帖最后由 美剧小虾 于 2021-9-29 21:46 编辑

p2673223669_副本.png

◎译  名 九个完美陌生人
◎片  名 Nine Perfect Strangers
◎年  代 2021
◎产  地 美国
◎类  别 剧情
◎语  言 英语
◎上映日期 2021-08-18(美国)
◎IMDb评分  7.4/10 from 11465 users
◎IMDb链接  https://www.imdb.com/title/tt8760932/
◎豆瓣评分 /10 from 0 users
◎豆瓣链接 https://douban.com/subject/33433394/
◎集  数 8
◎导  演 乔纳森·莱文 Jonathan Levine
◎编  剧 约翰-亨利·巴特沃斯 John-Henry Butterworth / 大卫·E·凯利 David E. Kelley / 莉安·莫里亚蒂 Liane Moriarty
◎主  演 妮可·基德曼 Nicole Kidman
       梅丽莎·麦卡西 Melissa McCarthy
       蒂凡尼·布恩 Tiffany Boone
       鲍比·坎纳瓦尔 Bobby Cannavale
       卢克·伊万斯 Luke Evans
       梅尔文·格雷格 Melvin Gregg
       雷吉娜·赫尔 Regina Hall
       曼尼·贾希尼托 Manny Jacinto
       阿什·凯迪 Asher Keddie
       迈克尔·珊农 Michael Shannon
       格蕾丝·范帕滕 Grace Van Patten
       萨玛拉·维文 Samara Weaving
       艾莉拉·布朗 Alyla Browne
        Angie Diaz


◎简  介


  该剧根据《大小谎言》作者莉安·莫里亚蒂同名新书改编,大卫·E·凯利(《大小谎言》)、约翰-亨利·巴特沃斯([明日边缘])共同操刀剧本,并运作剧集,妮可·基德曼主演并担任剧集执行制片人。故事讲述在一家以治愈和令人转变为目标的精品健康度假村里,九位在城市中饱受压力困扰的居民来到这里向 往一种更好的生活方式。在为期10天的静修期间,度假村的指导玛莎(妮可·基德曼 饰)将照顾他们,玛莎的目的是重振他们疲惫的心灵和身体。然而,这九个“完美”陌生人并不知道将会发生什么。
General
Complete name                  : E:\Nine.Perfect.Strangers.S01E06.2160p.HULU.WEB-DL.DDP5.1.H.265-FLUX.mkv
Format                         : Matroska
Format version                 : Version 4
File size                      : 6.06 GiB
Duration                       : 55 min 0 s
Overall bit rate               : 15.8 Mb/s
Movie name                     : Nine Perfect Strangers - S01E06 - Motherlode
Encoded date                   : UTC 2021-09-08 04:18:33
Writing application            : mkvmerge v59.0.0 ('Shining Star') 64-bit
Writing library                : libebml v1.4.2 + libmatroska v1.6.4
IMDB                           : tt8760932
TMDB                           : tv/88989

Video
ID                             : 1
Format                         : HEVC
Format/Info                    : High Efficiency Video Coding
Format profile                 : Main 10@L5.1@Main
Codec ID                       : V_MPEGH/ISO/HEVC
Duration                       : 55 min 0 s
Bit rate                       : 15.5 Mb/s
Width                          : 3 840 pixels
Height                         : 2 160 pixels
Display aspect ratio           : 16:9
Frame rate mode                : Constant
Frame rate                     : 23.976 (24000/1001) FPS
Color space                    : YUV
Chroma subsampling             : 4:2:0
Bit depth                      : 10 bits
Bits/(Pixel*Frame)             : 0.078
Stream size                    : 5.96 GiB (98%)
Default                        : Yes
Forced                         : No

Audio
ID                             : 2
Format                         : E-AC-3
Format/Info                    : Enhanced AC-3
Commercial name                : Dolby Digital Plus
Codec ID                       : A_EAC3
Duration                       : 55 min 0 s
Bit rate mode                  : Constant
Bit rate                       : 256 kb/s
Channel(s)                     : 6 channels
Channel layout                 : L R C LFE Ls Rs
Sampling rate                  : 48.0 kHz
Frame rate                     : 31.250 FPS (1536 SPF)
Compression mode               : Lossy
Stream size                    : 101 MiB (2%)
Language                       : English
Service kind                   : Complete Main
Default                        : Yes
Forced                         : No

Text #1
ID                             : 3
Format                         : UTF-8
Codec ID                       : S_TEXT/UTF8
Codec ID/Info                  : UTF-8 Plain Text
Duration                       : 52 min 23 s
Bit rate                       : 64 b/s
Count of elements              : 784
Stream size                    : 24.7 KiB (0%)
Language                       : English
Default                        : No
Forced                         : No

Text #2
ID                             : 4
Format                         : UTF-8
Codec ID                       : S_TEXT/UTF8
Codec ID/Info                  : UTF-8 Plain Text
Duration                       : 54 min 39 s
Bit rate                       : 72 b/s
Count of elements              : 936
Stream size                    : 29.0 KiB (0%)
Title                          : SDH
Language                       : English
Default                        : No
Forced                         : No

Text #3
ID                             : 5
Format                         : UTF-8
Codec ID                       : S_TEXT/UTF8
Codec ID/Info                  : UTF-8 Plain Text
Duration                       : 53 min 23 s
Bit rate                       : 70 b/s
Count of elements              : 907
Stream size                    : 27.5 KiB (0%)
Title                          : SDH
Language                       : Spanish
Default                        : No
Forced                         : No

Menu
00:14:32.000                   : Chapter 1
00:28:25.000                   : Chapter 2
00:39:42.000                   : Chapter 3
00:49:14.000                   : Chapter 4
00:53:24.000                   : Chapter 5 - Credits

下载地址

九个完美陌生人(41.47GB)Nine.Perfect.Strangers.S01.2160p.HULU.WEBRip.DDP5.1.x26.torrent (53.19 KB, 售价: 9 金币)

上一篇:凯瑟琳大帝 / The Great / 第一季全10集 (2020) 4K高清下载
下一篇:星球大战:幻境(2021)/ 第一季全9集 4K高清下载
回复

使用道具 举报

6

主题

1372

帖子

3992

积分

中级会员

Rank: 4

积分
3992
发表于 2021-9-22 21:16:02 | 显示全部楼层
1v1飘过
回复 支持 反对

使用道具 举报

1

主题

1331

帖子

3829

积分

4K家园VIP

Rank: 9Rank: 9Rank: 9

积分
3829
发表于 2021-9-22 21:16:02 | 显示全部楼层
前排,哇咔咔
回复 支持 反对

使用道具 举报

3

主题

1289

帖子

3887

积分

4K家园VIP

Rank: 9Rank: 9Rank: 9

积分
3887
发表于 2021-9-23 07:13:33 | 显示全部楼层
支持楼主,用户楼主,楼主英明呀!!!
回复 支持 反对

使用道具 举报

50

主题

1439

帖子

4089

积分

4K家园VIP

Rank: 9Rank: 9Rank: 9

积分
4089
发表于 2021-9-23 13:55:57 来自手机 | 显示全部楼层
回复 支持 反对

使用道具 举报

1

主题

1287

帖子

3683

积分

4K家园VIP

Rank: 9Rank: 9Rank: 9

积分
3683
发表于 2021-9-23 20:10:32 来自手机 | 显示全部楼层
正需要
回复 支持 反对

使用道具 举报

您需要登录后才可以回帖 登录 | 立即注册

本版积分规则

精彩图文
Archiver|手机版|TAG|Sitemap|新帖|专题|联系我们:邮箱: 4kjia.com@gmail.com   

4k家园   ©2019