星球大战:幻境(2021)/ 第一季全9集 4K高清下载

[复制链接]

31

主题

35

帖子

368

积分

版主

Rank: 7Rank: 7Rank: 7

积分
368
 楼主| 发表于 2021-9-23 21:32:20 | 显示全部楼层 |阅读模式
p2681213622_副本.jpg

◎译  名 星球大战:幻象
◎片  名 Star Wars: Visions
◎年  代 2021
◎产  地 日本/美国
◎类  别 动作/科幻/动画/奇幻/冒险
◎语  言 英语
◎上映日期 2021-09-22(美国)
◎豆瓣评分 8.5/10 from 160 users
◎豆瓣链接 https://douban.com/subject/35284557/
◎集  数 9
◎导  演 阿韦尔·贡戈拉 Abel Góngora
◎主  演 约瑟夫·高登-莱维特 Joseph Gordon-Levitt
       刘玉玲 Lucy Liu
       刘思慕 Simu Liu
       尼尔·帕特里克·哈里斯 Neil Patrick Harris
       亨利·戈尔丁 Henry Golding
       大卫·哈伯 David Harbour
       杰米·钟 Jamie Chung
       特穆拉·莫里森 Temuera Morrison
       福原·凯伦 Karen Fukuhara
       乔丹·费舍 Jordan Fisher
       爱丽森·布里 Alison Brie
       吴汉章 James Hong
       鲍比·莫尼汉 Bobby Moynihan
       武井乔治 George Takei
       丘增 Masi Oka
       谢尔碧·杨 Shelby Young
       贵美子·格伦 Kimiko Glenn
       布莱恩·泰 Brian Tee
       马克·汤普森 Marc Thompson
       克里斯托弗·肖恩 Christopher Sean
       田川洋行 Cary-Hiroyuki Tagawa
       安德鲁·基希诺 Andrew Kishino
       斯蒂芬妮·社 Stephanie Sheh
       尼尔·卡普兰 Neil Kaplan
       米夏埃尔·桑泰尔尼克拉斯 Michael Sinterniklaas
       凯尔·钱德勒 Kyle Chandler
       安娜·卡思卡特 Anna Cathcart
       保罗·纳高奇 Paul Nakauchi
       凯尔·麦卡利 Kyle McCarley
       基内·扬 Keone Young
       洛莱妮·图桑特 Lorraine Toussaint
       格雷格·秦 Greg Chun
       乔纳森·利波 Jonathan Lipow
       寺杣昌纪 Masaki Terasoma
       渡边明乃 Akeno Watanabe
       三瓶由布子 Yuko Sanpei
       吉野裕行 Hiroyuki Yoshino
       后藤光祐 Gotou Kousuke
       金田明夫 Akio Kaneda
       藤田正嘉 Masayoshi Fujita
       胜杏里 Anri Katsu
       榎木淳弥 Junya Enoki
       白石凉子 Ryoko Shiraishi
       川岛得爱 Tokuyoshi Kawashima
       濑户麻沙美 Asami Seto
       潘惠美 Megumi Han
       内田雄马 Yuma Uchida
       上川隆也 Takaya Kamikawa
       下山吉光 Yoshimitsu Shimoyama
       伊濑茉莉也 Mariya Ise
       赤崎千夏 Chinatsu Akasaki
       金尾哲夫 Kanao Tetsuo
       三木真一郎 Shinichirô Miki
       中井和哉 Kazuya Nakai
       大塚明夫 Akio Ôtsuka
       平川大辅 Daisuke Hirakawa
       野泽雅子 Masako Nozawa
       矶部勉 Tsutomu Isobe
       土师孝也 Takaya Hashi
       绪方贤一 Kenichi Ogata
       中丸雄一 Yuichi Nakamaru
       小林星兰 Seiran Kobayashi
       清水理沙 Risa Shimizu
       宫崎悠 Yu Miyazaki
       Lynn Lynn
       长岛雄一 Yûichi Nagashima
       高木涉 Wataru Takagi
       野泽由里香 Yukari Nozawa


◎简  介


  卢卡斯影业将打造全新星战短片合集《星球大战:幻象》(Star Wars: Visions,暂译)。10部短片将由日本几家不同的动漫工作室创作,将为星战引入不同文化视角。

General
Complete name                  : Star.Wars.Visions.S01E09.iTA.ENG.HDR.2160p.DDP5.1.HEVC.WEB.h264-DENiED.mkv
Format                         : Matroska
Format version                 : Version 4
File size                      : 1.51 GiB
Duration                       : 13 min 2 s
Overall bit rate               : 16.6 Mb/s
Encoded date                   : UTC 2021-09-22 16:47:14
Writing application            : mkvmerge v55.0.0 ('Waiting For Space') 64-bit
Writing library                : libebml v1.4.2 + libmatroska v1.6.4

Video
ID                             : 1
Format                         : HEVC
Format/Info                    : High Efficiency Video Coding
Format profile                 : Main 10@L5@High
HDR format                     : SMPTE ST 2086, HDR10 compatible
Codec ID                       : V_MPEGH/ISO/HEVC
Duration                       : 13 min 2 s
Bit rate                       : 16.1 Mb/s
Width                          : 3 840 pixels
Height                         : 2 160 pixels
Display aspect ratio           : 16:9
Frame rate mode                : Constant
Frame rate                     : 24.000 FPS
Color space                    : YUV
Chroma subsampling             : 4:2:0
Bit depth                      : 10 bits
Bits/(Pixel*Frame)             : 0.081
Stream size                    : 1.46 GiB (97%)
Default                        : Yes
Forced                         : No
Color range                    : Limited
Color primaries                : BT.2020
Transfer characteristics       : PQ
Matrix coefficients            : BT.2020 non-constant
Mastering display color primar : Display P3
Mastering display luminance    : min: 0.0050 cd/m2, max: 1000 cd/m2

Audio #1
ID                             : 2
Format                         : E-AC-3
Format/Info                    : Enhanced AC-3
Commercial name                : Dolby Digital Plus
Codec ID                       : A_EAC3
Duration                       : 13 min 2 s
Bit rate mode                  : Constant
Bit rate                       : 256 kb/s
Channel(s)                     : 6 channels
Channel layout                 : L R C LFE Ls Rs
Sampling rate                  : 48.0 kHz
Frame rate                     : 31.250 FPS (1536 SPF)
Compression mode               : Lossy
Stream size                    : 23.9 MiB (2%)
Title                          : Italian
Language                       : Italian
Service kind                   : Complete Main
Default                        : Yes
Forced                         : No

Audio #2
ID                             : 3
Format                         : E-AC-3
Format/Info                    : Enhanced AC-3
Commercial name                : Dolby Digital Plus
Codec ID                       : A_EAC3
Duration                       : 13 min 2 s
Bit rate mode                  : Constant
Bit rate                       : 256 kb/s
Channel(s)                     : 6 channels
Channel layout                 : L R C LFE Ls Rs
Sampling rate                  : 48.0 kHz
Frame rate                     : 31.250 FPS (1536 SPF)
Compression mode               : Lossy
Stream size                    : 23.9 MiB (2%)
Title                          : English
Language                       : English
Service kind                   : Complete Main
Default                        : No
Forced                         : No

Text #1
ID                             : 4
Format                         : UTF-8
Codec ID                       : S_TEXT/UTF8
Codec ID/Info                  : UTF-8 Plain Text
Duration                       : 11 min 47 s
Bit rate                       : 45 b/s
Count of elements              : 125
Stream size                    : 3.94 KiB (0%)
Title                          : Italian Full
Language                       : Italian
Default                        : No
Forced                         : No

Text #2
ID                             : 5
Format                         : UTF-8
Codec ID                       : S_TEXT/UTF8
Codec ID/Info                  : UTF-8 Plain Text
Duration                       : 12 min 20 s
Bit rate                       : 62 b/s
Count of elements              : 185
Stream size                    : 5.68 KiB (0%)
Title                          : English SDH
Language                       : English
Default                        : No
Forced                         : No


下载链接

游客,如果您要查看本帖隐藏内容请回复







上一篇:九个完美陌生人 / 第一季全8集 (2021) 4K高清下载
下一篇:[山海情][原声&配音双音轨][34.75gB][全23集][4K中字][2020豆瓣9....
回复

使用道具 举报

44

主题

1471

帖子

4231

积分

4K家园VIP

Rank: 9Rank: 9Rank: 9

积分
4231
发表于 2021-9-23 21:32:41 | 显示全部楼层
路过
回复 支持 反对

使用道具 举报

58

主题

1510

帖子

4340

积分

4K家园VIP

Rank: 9Rank: 9Rank: 9

积分
4340
发表于 2021-9-23 22:38:39 | 显示全部楼层
不错 支持下
回复 支持 反对

使用道具 举报

0

主题

2

帖子

31

积分

新手上路

Rank: 1

积分
31
发表于 2021-9-23 22:52:03 | 显示全部楼层
谢谢楼主分享
回复 支持 反对

使用道具 举报

0

主题

14

帖子

66

积分

新手上路

Rank: 1

积分
66
发表于 2021-9-24 08:57:54 | 显示全部楼层
向楼主致敬!
回复 支持 反对

使用道具 举报

0

主题

17

帖子

64

积分

新手上路

Rank: 1

积分
64
发表于 2021-9-24 15:14:52 | 显示全部楼层
赞一个吧!
回复

使用道具 举报

0

主题

25

帖子

80

积分

新手上路

Rank: 1

积分
80
发表于 2021-9-24 19:50:45 | 显示全部楼层
楼主就是给力
回复 支持 反对

使用道具 举报

0

主题

1307

帖子

3935

积分

4K家园VIP

Rank: 9Rank: 9Rank: 9

积分
3935
发表于 2021-9-24 21:20:28 | 显示全部楼层
我是个凑数的。。。
回复 支持 反对

使用道具 举报

0

主题

219

帖子

1446

积分

4K家园VIP

Rank: 9Rank: 9Rank: 9

积分
1446
QQ
发表于 2021-9-25 00:14:13 | 显示全部楼层
楼主辛苦了,谢谢楼主,感谢楼主分享,楼主好人一生平安!!!
回复 支持 反对

使用道具 举报

3

主题

1252

帖子

3778

积分

4K家园VIP

Rank: 9Rank: 9Rank: 9

积分
3778
发表于 2021-9-25 10:03:03 | 显示全部楼层
支持,楼下的跟上哈~
回复 支持 反对

使用道具 举报

您需要登录后才可以回帖 登录 | 立即注册

本版积分规则

精彩图文
Archiver|手机版|TAG|Sitemap|新帖|专题|联系我们:邮箱: 4kjia.com@gmail.com   

4k家园   ©2019