[动物世界] 2020 纪录片《狒狒群居部落 50fps》4K高清下载/5.37GB

[复制链接]

2567

主题

2891

帖子

2万

积分

超级版主

Rank: 8Rank: 8

积分
24052
 楼主| 发表于 2021-9-29 10:36:05 | 显示全部楼层 |阅读模式
本帖最后由 叽里呱啦 于 2021-9-23 22:09 编辑

c10225960bd1676b66a9965b6c444a7f.jpg

发行年份:2020 年
国家:加拿大
类型:纪录片
持续时间:00:47:58
导演:查理·勒克洛克 / 查理·勒克洛克

描述:

        观察四种不同种类狒狒的家族,了解这些灵长类动物如何成为非洲最成功的动物。


General
ID                             : 34 (0x22)
Complete name                  : E:\4K@电影 4K@MV\Бабуины_ правила стаи.ts
Format                         : MPEG-TS
File size                      : 5.38 GiB
Duration                       : 47 min 58 s
Overall bit rate mode          : Variable
Overall bit rate               : 16.0 Mb/s

Video
ID                             : 4881 (0x1311)
Menu ID                        : 34003 (0x84D3)
Format                         : HEVC
Format/Info                    : High Efficiency Video Coding
Format profile                 : Main 10@L5.1@Main
Codec ID                       : 36
Duration                       : 25 h 7 min
Bit rate                       : 15.0 Mb/s
Width                          : 3 840 pixels
Height                         : 2 160 pixels
Display aspect ratio           : 16:9
Frame rate                     : 50.000 FPS
Standard                       : Component
Color space                    : YUV
Chroma subsampling             : 4:2:0
Bit depth                      : 10 bits
Bits/(Pixel*Frame)             : 0.036
Stream size                    : 158 GiB
Color range                    : Limited
Color primaries                : BT.709
Transfer characteristics       : BT.709
Matrix coefficients            : BT.709

Audio #1
ID                             : 4882 (0x1312)
Menu ID                        : 34003 (0x84D3)
Format                         : MPEG Audio
Format version                 : Version 1
Format profile                 : Layer 2
Codec ID                       : 4
Duration                       : 47 min 58 s
Bit rate mode                  : Constant
Bit rate                       : 128 kb/s
Channel(s)                     : 2 channels
Sampling rate                  : 48.0 kHz
Frame rate                     : 41.667 FPS (1152 SPF)
Compression mode               : Lossy
Delay relative to video        : 157 ms
Stream size                    : 43.9 MiB (1%)
Language                       : Russian

Audio #2
ID                             : 4883 (0x1313)
Menu ID                        : 34003 (0x84D3)
Format                         : MPEG Audio
Format version                 : Version 1
Format profile                 : Layer 2
Codec ID                       : 4
Duration                       : 47 min 58 s
Bit rate mode                  : Constant
Bit rate                       : 128 kb/s
Channel(s)                     : 2 channels
Sampling rate                  : 48.0 kHz
Frame rate                     : 41.667 FPS (1152 SPF)
Compression mode               : Lossy
Delay relative to video        : 157 ms
Stream size                    : 43.9 MiB (1%)
Language                       : English
Бабуины_ правила стаи.ts_20210923_215314.520.jpg Бабуины_ правила стаи.ts_20210923_215253.368.jpg Бабуины_ правила стаи.ts_20210923_215245.225.jpg Бабуины_ правила стаи.ts_20210923_215200.104.jpg Бабуины_ правила стаи.ts_20210923_215133.704.jpg Бабуины_ правила стаи.ts_20210923_215007.464.jpg Бабуины_ правила стаи.ts_20210923_214955.272.jpg


下载链接:

****此区域为收费内容****    需支付 15 金币后可查看立即购买





上一篇:门徒 / The Protégé (2021) 4K高清版本下载/16.11GB
下一篇:天堂鸟(内嵌中字)/Birds of Paradise (2021)4K高清版本下载/12.37GB
回复

使用道具 举报

0

主题

1291

帖子

3889

积分

4K家园VIP

Rank: 9Rank: 9Rank: 9

积分
3889
发表于 2021-9-29 10:36:12 | 显示全部楼层
路过
回复 支持 反对

使用道具 举报

0

主题

163

帖子

993

积分

新手上路

Rank: 1

积分
993
发表于 2021-9-29 21:01:41 | 显示全部楼层
谢谢楼主分享
回复 支持 反对

使用道具 举报

2

主题

1363

帖子

3939

积分

中级会员

Rank: 4

积分
3939
发表于 2021-10-1 12:56:18 | 显示全部楼层
沙发位出租,
回复 支持 反对

使用道具 举报

2

主题

1359

帖子

4095

积分

4K家园VIP

Rank: 9Rank: 9Rank: 9

积分
4095
发表于 2021-10-4 16:07:51 来自手机 | 显示全部楼层
4K电影下个试试
回复 支持 反对

使用道具 举报

49

主题

1416

帖子

4074

积分

4K家园VIP

Rank: 9Rank: 9Rank: 9

积分
4074
发表于 2021-10-5 08:23:35 | 显示全部楼层
为保住菊花,这个一定得回复!
回复 支持 反对

使用道具 举报

2

主题

1312

帖子

3802

积分

4K家园VIP

Rank: 9Rank: 9Rank: 9

积分
3802
发表于 2021-10-11 22:55:04 | 显示全部楼层
站位支持
回复 支持 反对

使用道具 举报

您需要登录后才可以回帖 登录 | 立即注册

本版积分规则

精彩图文
Archiver|手机版|TAG|Sitemap|新帖|专题|联系我们:邮箱: 4kjia.com@gmail.com   

4k家园   ©2019