[国家地理] [4K 国家地理] 阿拉斯加科迪亚克 (2021) [2160P/MKV/282MB]

[复制链接]

2566

主题

2890

帖子

2万

积分

超级版主

Rank: 8Rank: 8

积分
24032
 楼主| 发表于 2021-9-26 21:12:03 | 显示全部楼层 |阅读模式

阿拉斯加科迪亚克(282MB) (2021) WEBRip 2160p.mkv_20210926_210517.657.jpg 阿拉斯加科迪亚克(282MB) (2021) WEBRip 2160p.mkv_20210926_210527.352.jpg 阿拉斯加科迪亚克(282MB) (2021) WEBRip 2160p.mkv_20210926_210537.480.jpg 阿拉斯加科迪亚克(282MB) (2021) WEBRip 2160p.mkv_20210926_210549.712.jpg 阿拉斯加科迪亚克(282MB) (2021) WEBRip 2160p.mkv_20210926_210602.745.jpg 阿拉斯加科迪亚克(282MB) (2021) WEBRip 2160p.mkv_20210926_210616.657.jpg

影片信息
片名:阿拉斯加科迪亚克
上映年份: 2021
国家:美国
时长: 00 : 02 : 32
类型: 物种
导演:杰克· 杜

本 影片简介:

       卡迪亚克是美国的一座城市,位于阿拉斯加南部的科迪亚克岛,距阿拉斯加州约 90 公里阿拉斯加海岸。

General
Complete name                  : E:\4K@电影 4K@MV\99999\阿拉斯加科迪亚克(282MB) (2021) WEBRip 2160p.mkv
Format                         : Matroska
Format version                 : Version 4
File size                      : 283 MiB
Duration                       : 2 min 32 s
Overall bit rate               : 15.6 Mb/s
Encoded date                   : UTC 2021-09-16 17:37:56
Writing application            : mkvmerge v61.0.0 ('So') 64-bit
Writing library                : libebml v1.4.2 + libmatroska v1.6.4 / Lavf58.29.100

Video
ID                             : 1
Format                         : VP9
Codec ID                       : V_VP9
Duration                       : 2 min 32 s
Bit rate                       : 15.4 Mb/s
Width                          : 3 840 pixels
Height                         : 2 160 pixels
Display aspect ratio           : 16:9
Frame rate mode                : Constant
Frame rate                     : 23.976 FPS
Color space                    : YUV
Bits/(Pixel*Frame)             : 0.078
Stream size                    : 280 MiB (99%)
Default                        : Yes
Forced                         : No
Color range                    : Limited
Color primaries                : BT.709
Transfer characteristics       : BT.709
Matrix coefficients            : BT.709

Audio
ID                             : 2
Format                         : Opus
Codec ID                       : A_OPUS
Duration                       : 2 min 32 s
Bit rate                       : 141 kb/s
Channel(s)                     : 2 channels
Channel layout                 : L R
Sampling rate                  : 48.0 kHz
Frame rate                     : 50.004 FPS (960 SPF)
Bit depth                      : 32 bits
Compression mode               : Lossy
Stream size                    : 2.56 MiB (1%)
Default                        : Yes
Forced                         : No
下载地址

****此区域为收费内容****    需支付 15 金币后可查看立即购买









上一篇:[4K 国家地理] 意大利-前往托斯卡纳(2020)[2160P/MKV/215MB]
下一篇:[4K 国家地理] 蒂罗尔奥斯特罗尔 (2021) [2160P/MKV/368MB]
回复

使用道具 举报

14

主题

1175

帖子

3515

积分

4K家园VIP

Rank: 9Rank: 9Rank: 9

积分
3515
发表于 2021-9-26 21:12:08 来自手机 | 显示全部楼层
支持你哈...................................
回复 支持 反对

使用道具 举报

1

主题

1269

帖子

3691

积分

4K家园VIP

Rank: 9Rank: 9Rank: 9

积分
3691
发表于 2021-9-27 12:41:15 | 显示全部楼层
你们要是有4K资源记得分享,别小气
回复 支持 反对

使用道具 举报

3

主题

1720

帖子

4708

积分

中级会员

Rank: 4

积分
4708
发表于 2021-9-27 14:24:24 | 显示全部楼层
前排顶,很好!
回复 支持 反对

使用道具 举报

4

主题

1252

帖子

3776

积分

4K家园VIP

Rank: 9Rank: 9Rank: 9

积分
3776
发表于 2021-9-28 07:16:37 | 显示全部楼层
介是神马?!!
回复 支持 反对

使用道具 举报

41

主题

1450

帖子

4148

积分

4K家园VIP

Rank: 9Rank: 9Rank: 9

积分
4148
发表于 2021-9-28 08:17:45 | 显示全部楼层
谢谢楼主
回复 支持 反对

使用道具 举报

您需要登录后才可以回帖 登录 | 立即注册

本版积分规则

精彩图文
Archiver|手机版|TAG|Sitemap|新帖|专题|联系我们:邮箱: 4kjia.com@gmail.com   

4k家园   ©2019