[国家地理] [4K 国家地理] 蒂罗尔奥斯特罗尔 (2021) [2160P/MKV/368MB]

[复制链接]

2567

主题

2891

帖子

2万

积分

超级版主

Rank: 8Rank: 8

积分
24049
 楼主| 发表于 2021-10-4 09:54:07 | 显示全部楼层 |阅读模式
蒂罗尔奥斯特罗尔(368MB) (2021) WEBRip 2160p.mkv_20210926_211536.264.jpg 蒂罗尔奥斯特罗尔(368MB) (2021) WEBRip 2160p.mkv_20210926_211544.048.jpg 蒂罗尔奥斯特罗尔(368MB) (2021) WEBRip 2160p.mkv_20210926_211554.553.jpg 蒂罗尔奥斯特罗尔(368MB) (2021) WEBRip 2160p.mkv_20210926_211612.145.jpg 蒂罗尔奥斯特罗尔(368MB) (2021) WEBRip 2160p.mkv_20210926_211618.545.jpg 蒂罗尔奥斯特罗尔(368MB) (2021) WEBRip 2160p.mkv_20210926_211628.153.jpg

关于信息
标题:蒂罗尔
发行时间: 2021
国家:奥地利
持续时间: 00 : 03 : 02
类型: 种
导演: 296.airfootage

影片简介:

       雄伟的山峰和风景如画的山谷、岩石峭壁、明亮的高山草甸、雄伟的冰川:蒂罗尔是最具吸引力的休闲地区之一,被称为山区是理所当然的。

General
Complete name                  : E:\4K@电影 4K@MV\99999\蒂罗尔奥斯特罗尔(368MB) (2021) WEBRip 2160p.mkv
Format                         : Matroska
Format version                 : Version 4
File size                      : 368 MiB
Duration                       : 3 min 2 s
Overall bit rate               : 16.9 Mb/s
Encoded date                   : UTC 2021-09-07 13:35:48
Writing application            : mkvmerge v61.0.0 ('So') 64-bit
Writing library                : libebml v1.4.2 + libmatroska v1.6.4 / Lavf58.29.100

Video
ID                             : 1
Format                         : VP9
Codec ID                       : V_VP9
Duration                       : 3 min 2 s
Bit rate                       : 16.8 Mb/s
Width                          : 3 840 pixels
Height                         : 2 160 pixels
Display aspect ratio           : 16:9
Frame rate mode                : Constant
Frame rate                     : 30.000 FPS
Color space                    : YUV
Bits/(Pixel*Frame)             : 0.067
Stream size                    : 365 MiB (99%)
Default                        : Yes
Forced                         : No
Color range                    : Limited
Color primaries                : BT.709
Transfer characteristics       : BT.709
Matrix coefficients            : BT.709

Audio
ID                             : 2
Format                         : AAC LC
Format/Info                    : Advanced Audio Codec Low Complexity
Codec ID                       : A_AAC-2
Duration                       : 3 min 2 s
Bit rate                       : 128 kb/s
Channel(s)                     : 2 channels
Channel layout                 : L R
Sampling rate                  : 44.1 kHz
Frame rate                     : 43.066 FPS (1024 SPF)
Compression mode               : Lossy
Stream size                    : 2.79 MiB (1%)
Default                        : Yes
Forced                         : No

下载地址

****此区域为收费内容****    需支付 15 金币后可查看立即购买




上一篇:[4K 国家地理] 阿拉斯加科迪亚克 (2021) [2160P/MKV/282MB]
下一篇:[4K 国家地理] 凡尔赛宫之夜 (2021) [2160P/MKV/193MB]
回复

使用道具 举报

44

主题

1413

帖子

4085

积分

4K家园VIP

Rank: 9Rank: 9Rank: 9

积分
4085
发表于 2021-10-4 09:54:17 | 显示全部楼层
试试看吧
回复 支持 反对

使用道具 举报

0

主题

5991

帖子

1万

积分

4K家园VIP

Rank: 9Rank: 9Rank: 9

积分
14278
发表于 2021-10-4 11:00:22 | 显示全部楼层
奧地利蒂羅爾奧斯特羅爾4k
回复 支持 反对

使用道具 举报

39

主题

1430

帖子

4084

积分

4K家园VIP

Rank: 9Rank: 9Rank: 9

积分
4084
发表于 2021-10-5 07:31:06 来自手机 | 显示全部楼层
我也顶起出售广告位
回复 支持 反对

使用道具 举报

1

主题

1319

帖子

3811

积分

4K家园VIP

Rank: 9Rank: 9Rank: 9

积分
3811
发表于 2021-10-8 06:57:49 | 显示全部楼层
高手啊
回复 支持 反对

使用道具 举报

46

主题

1389

帖子

3995

积分

4K家园VIP

Rank: 9Rank: 9Rank: 9

积分
3995
发表于 2021-10-9 11:24:18 | 显示全部楼层
4K家园资源最近貌似越来越多了
回复 支持 反对

使用道具 举报

52

主题

1439

帖子

4183

积分

4K家园VIP

Rank: 9Rank: 9Rank: 9

积分
4183
发表于 2021-10-9 22:57:51 来自手机 | 显示全部楼层
沙发位出租,
回复 支持 反对

使用道具 举报

0

主题

1190

帖子

3762

积分

中级会员

Rank: 4

积分
3762
发表于 2021-10-15 10:29:20 | 显示全部楼层

希望楼主继续分享
回复 支持 反对

使用道具 举报

您需要登录后才可以回帖 登录 | 立即注册

本版积分规则

精彩图文
Archiver|手机版|TAG|Sitemap|新帖|专题|联系我们:邮箱: 4kjia.com@gmail.com   

4k家园   ©2019