[国家地理] [4K 国家地理] 凡尔赛宫之夜 (2021) [2160P/MKV/193MB]

[复制链接]

2569

主题

2893

帖子

2万

积分

超级版主

Rank: 8Rank: 8

积分
24070
 楼主| 发表于 2021-9-28 13:05:20 | 显示全部楼层 |阅读模式

凡尔赛宫之夜(193MB) (2021) WEBRip 2160p.mkv_20210926_212435.184.jpg 凡尔赛宫之夜(193MB) (2021) WEBRip 2160p.mkv_20210926_212445.840.jpg 凡尔赛宫之夜(193MB) (2021) WEBRip 2160p.mkv_20210926_212456.632.jpg 凡尔赛宫之夜(193MB) (2021) WEBRip 2160p.mkv_20210926_212530.240.jpg 凡尔赛宫之夜(193MB) (2021) WEBRip 2160p.mkv_20210926_212543.960.jpg 凡尔赛宫之夜(193MB) (2021) WEBRip 2160p.mkv_20210926_212554.888.jpg

关于信息
标题:夜在凡尔赛宫
国家:法国
工作室:凡尔赛宫
时长: 00 : 03 : 54
发行年: 2021
类型: 种

关于影片:

      睡眠时间,时间为夜间。参观沉睡的凡尔赛宫!

General
Complete name                  : E:\4K@电影 4K@MV\99999\凡尔赛宫之夜(193MB) (2021) WEBRip 2160p.mkv
Format                         : Matroska
Format version                 : Version 4
File size                      : 194 MiB
Duration                       : 3 min 54 s
Overall bit rate               : 6 924 kb/s
Encoded date                   : UTC 2021-09-23 19:04:51
Writing application            : mkvmerge v61.0.0 ('So') 64-bit
Writing library                : libebml v1.4.2 + libmatroska v1.6.4 / Lavf58.29.100

Video
ID                             : 1
Format                         : VP9
Codec ID                       : V_VP9
Duration                       : 3 min 54 s
Bit rate                       : 6 784 kb/s
Width                          : 3 840 pixels
Height                         : 2 160 pixels
Display aspect ratio           : 16:9
Frame rate mode                : Constant
Frame rate                     : 25.000 FPS
Color space                    : YUV
Bits/(Pixel*Frame)             : 0.033
Stream size                    : 190 MiB (98%)
Default                        : Yes
Forced                         : No
Color range                    : Limited
Color primaries                : BT.709
Transfer characteristics       : BT.709
Matrix coefficients            : BT.709

Audio
ID                             : 2
Format                         : Opus
Codec ID                       : A_OPUS
Duration                       : 3 min 54 s
Bit rate                       : 137 kb/s
Channel(s)                     : 2 channels
Channel layout                 : L R
Sampling rate                  : 48.0 kHz
Frame rate                     : 50.001 FPS (960 SPF)
Bit depth                      : 32 bits
Compression mode               : Lossy
Stream size                    : 3.84 MiB (2%)
Default                        : Yes
Forced                         : No
下载地址

****此区域为收费内容****    需支付 15 金币后可查看立即购买





上一篇:[4K 国家地理] 蒂罗尔奥斯特罗尔 (2021) [2160P/MKV/368MB]
下一篇:[4K 国家地理] 不列颠哥伦比亚省雪场 (2021) [2160P/MKV/918MB]
回复

使用道具 举报

0

主题

1318

帖子

3968

积分

4K家园VIP

Rank: 9Rank: 9Rank: 9

积分
3968
发表于 2021-9-28 13:05:25 | 显示全部楼层
感谢楼主的分享,还是阔以滴
回复 支持 反对

使用道具 举报

1

主题

1399

帖子

4029

积分

4K家园VIP

Rank: 9Rank: 9Rank: 9

积分
4029
发表于 2021-9-28 13:05:25 | 显示全部楼层
沙发位出租,
回复 支持 反对

使用道具 举报

0

主题

1660

帖子

4492

积分

4K家园VIP

Rank: 9Rank: 9Rank: 9

积分
4492
发表于 2021-9-28 17:04:12 | 显示全部楼层
求沙发
回复 支持 反对

使用道具 举报

3

主题

1354

帖子

3888

积分

4K家园VIP

Rank: 9Rank: 9Rank: 9

积分
3888
发表于 2021-9-29 12:02:48 | 显示全部楼层
求沙发
回复 支持 反对

使用道具 举报

40

主题

1490

帖子

4266

积分

4K家园VIP

Rank: 9Rank: 9Rank: 9

积分
4266
发表于 2021-10-2 03:45:46 | 显示全部楼层
回个帖子,下班咯~
回复 支持 反对

使用道具 举报

0

主题

647

帖子

2256

积分

注册会员

Rank: 2

积分
2256
发表于 2021-10-16 20:59:02 | 显示全部楼层
感谢楼主分享
回复 支持 反对

使用道具 举报

您需要登录后才可以回帖 登录 | 立即注册

本版积分规则

精彩图文
Archiver|手机版|TAG|Sitemap|新帖|专题|联系我们:邮箱: 4kjia.com@gmail.com   

4k家园   ©2019