[国家地理] [4K 国家地理] 不列颠哥伦比亚省雪场 (2021) [2160P/MKV/918MB]

[复制链接]

2571

主题

2895

帖子

2万

积分

超级版主

Rank: 8Rank: 8

积分
24086
 楼主| 发表于 2021-10-2 12:47:28 | 显示全部楼层 |阅读模式

犹他州到不列颠哥伦比亚省(918MB) (2021) WEBRip 2160p.mkv_20210926_213133.696.jp.jpg 犹他州到不列颠哥伦比亚省(918MB) (2021) WEBRip 2160p.mkv_20210926_213144.568.jp.jpg 犹他州到不列颠哥伦比亚省(918MB) (2021) WEBRip 2160p.mkv_20210926_213221.098.jp.jpg 犹他州到不列颠哥伦比亚省(918MB) (2021) WEBRip 2160p.mkv_20210926_213231.519.jp.jpg 犹他州到不列颠哥伦比亚省(918MB) (2021) WEBRip 2160p.mkv_20210926_213242.295.jp.jpg 犹他州到不列颠哥伦比亚省(918MB) (2021) WEBRip 2160p.mkv_20210926_213305.520.jp.jpg

电影信息
标题:犹他州到不列颠哥伦比亚省
上映日期: 2021年
国家:美国
时长: 00 : 08 : 23
类型: 物种
导演:艾蒂安·梅雷尔

关于电影:

      收拾行装,踏上史诗般的旅程:四名滑雪者、一台相机和 1,600 英里的北美荒野.

General
Complete name                  : E:\4K@电影 4K@MV\99999\不列颠哥伦比亚省雪场(918MB) (2021) WEBRip 2160p.mkv
Format                         : Matroska
Format version                 : Version 4
File size                      : 918 MiB
Duration                       : 8 min 23 s
Overall bit rate               : 15.3 Mb/s
Encoded date                   : UTC 2021-09-17 10:46:18
Writing application            : mkvmerge v61.0.0 ('So') 64-bit
Writing library                : libebml v1.4.2 + libmatroska v1.6.4 / Lavf58.29.100

Video
ID                             : 1
Format                         : VP9
Codec ID                       : V_VP9
Duration                       : 8 min 23 s
Bit rate                       : 15.2 Mb/s
Width                          : 3 840 pixels
Height                         : 2 160 pixels
Display aspect ratio           : 16:9
Frame rate mode                : Constant
Frame rate                     : 25.000 FPS
Color space                    : YUV
Bits/(Pixel*Frame)             : 0.073
Stream size                    : 910 MiB (99%)
Default                        : Yes
Forced                         : No
Color range                    : Limited
Color primaries                : BT.709
Transfer characteristics       : BT.709
Matrix coefficients            : BT.709

Audio
ID                             : 2
Format                         : Opus
Codec ID                       : A_OPUS
Duration                       : 8 min 23 s
Bit rate                       : 133 kb/s
Channel(s)                     : 2 channels
Channel layout                 : L R
Sampling rate                  : 48.0 kHz
Frame rate                     : 50.000 FPS (960 SPF)
Bit depth                      : 32 bits
Compression mode               : Lossy
Stream size                    : 7.96 MiB (1%)
Default                        : Yes
Forced                         : No
下载地址

****此区域为收费内容****    需支付 15 金币后可查看立即购买






上一篇:[4K 国家地理] 凡尔赛宫之夜 (2021) [2160P/MKV/193MB]
下一篇:[4K 国家地理] 布列塔尼北海岸 (2021) [2160P/MKV/308MB]
回复

使用道具 举报

1

主题

1304

帖子

3924

积分

4K家园VIP

Rank: 9Rank: 9Rank: 9

积分
3924
发表于 2021-10-2 12:47:33 | 显示全部楼层
我只是路过,不发表意见
回复 支持 反对

使用道具 举报

62

主题

1451

帖子

4233

积分

4K家园VIP

Rank: 9Rank: 9Rank: 9

积分
4233
发表于 2021-10-2 12:47:33 | 显示全部楼层
支持下楼主,顶一个
回复 支持 反对

使用道具 举报

0

主题

1404

帖子

4024

积分

4K家园VIP

Rank: 9Rank: 9Rank: 9

积分
4024
发表于 2021-10-4 10:30:46 | 显示全部楼层
无论是不是沙发都得回复下
回复 支持 反对

使用道具 举报

3

主题

1316

帖子

3966

积分

4K家园VIP

Rank: 9Rank: 9Rank: 9

积分
3966
发表于 2021-10-4 14:17:46 | 显示全部楼层
楼猪V5啊
回复 支持 反对

使用道具 举报

2

主题

1313

帖子

3805

积分

4K家园VIP

Rank: 9Rank: 9Rank: 9

积分
3805
发表于 2021-10-4 21:17:05 | 显示全部楼层
回个帖子,下班咯~
回复 支持 反对

使用道具 举报

0

主题

647

帖子

2256

积分

注册会员

Rank: 2

积分
2256
发表于 2021-10-16 20:58:19 | 显示全部楼层
感谢楼主分享
回复 支持 反对

使用道具 举报

您需要登录后才可以回帖 登录 | 立即注册

本版积分规则

精彩图文
Archiver|手机版|TAG|Sitemap|新帖|专题|联系我们:邮箱: 4kjia.com@gmail.com   

4k家园   ©2019