[国家地理] [4K 国家地理] 布列塔尼北海岸 (2021) [2160P/MKV/308MB]

[复制链接]

2566

主题

2890

帖子

2万

积分

超级版主

Rank: 8Rank: 8

积分
24032
 楼主| 发表于 2021-9-29 10:20:26 | 显示全部楼层 |阅读模式

布列塔尼北海岸(308MB) (2021) WEBRip 2160p.mkv_20210926_215644.615.jpg 布列塔尼北海岸(308MB) (2021) WEBRip 2160p.mkv_20210926_215657.255.jpg 布列塔尼北海岸(308MB) (2021) WEBRip 2160p.mkv_20210926_215707.600.jpg 布列塔尼北海岸(308MB) (2021) WEBRip 2160p.mkv_20210926_215721.839.jpg 布列塔尼北海岸(308MB) (2021) WEBRip 2160p.mkv_20210926_215744.423.jpg 布列塔尼北海岸(308MB) (2021) WEBRip 2160p.mkv_20210926_215800.735.jpg

影片信息
片名:布列塔尼北海岸
上映时间: 2021
国家:法国
时长: 00 : 03 : 13
类型: 风景
导演: XL Creations

关于电影:

       我们在法国布列塔尼北海岸游览时拍摄的精选照片。

General
Complete name                  : E:\4K@电影 4K@MV\99999\布列塔尼北海岸(308MB) (2021) WEBRip 2160p.mkv
Format                         : Matroska
Format version                 : Version 4
File size                      : 309 MiB
Duration                       : 3 min 13 s
Overall bit rate               : 13.4 Mb/s
Encoded date                   : UTC 2021-09-07 12:55:10
Writing application            : mkvmerge v61.0.0 ('So') 64-bit
Writing library                : libebml v1.4.2 + libmatroska v1.6.4 / Lavf58.29.100

Video
ID                             : 1
Format                         : VP9
Codec ID                       : V_VP9
Duration                       : 3 min 13 s
Bit rate                       : 13.3 Mb/s
Width                          : 3 840 pixels
Height                         : 1 920 pixels
Display aspect ratio           : 2.000
Frame rate mode                : Constant
Frame rate                     : 25.000 FPS
Color space                    : YUV
Bits/(Pixel*Frame)             : 0.072
Stream size                    : 306 MiB (99%)
Default                        : Yes
Forced                         : No
Color range                    : Limited
Color primaries                : BT.709
Transfer characteristics       : BT.709
Matrix coefficients            : BT.709

Audio
ID                             : 2
Format                         : AAC LC
Format/Info                    : Advanced Audio Codec Low Complexity
Codec ID                       : A_AAC-2
Duration                       : 3 min 13 s
Bit rate                       : 128 kb/s
Channel(s)                     : 2 channels
Channel layout                 : L R
Sampling rate                  : 44.1 kHz
Frame rate                     : 43.066 FPS (1024 SPF)
Compression mode               : Lossy
Stream size                    : 2.95 MiB (1%)
Default                        : Yes
Forced                         : No
下载地址

****此区域为收费内容****    需支付 15 金币后可查看立即购买




上一篇:[4K 国家地理] 不列颠哥伦比亚省雪场 (2021) [2160P/MKV/918MB]
下一篇:[4K 国家地理] 委内瑞拉丛林最高的瀑布 (2021) [2160P/MKV/415MB]
回复

使用道具 举报

52

主题

1424

帖子

4102

积分

4K家园VIP

Rank: 9Rank: 9Rank: 9

积分
4102
发表于 2021-9-29 10:20:32 | 显示全部楼层
介是神马?!!
回复 支持 反对

使用道具 举报

1

主题

1397

帖子

4023

积分

4K家园VIP

Rank: 9Rank: 9Rank: 9

积分
4023
发表于 2021-9-29 10:46:03 | 显示全部楼层
支持一下楼主发表的内容
回复 支持 反对

使用道具 举报

3

主题

1331

帖子

3839

积分

4K家园VIP

Rank: 9Rank: 9Rank: 9

积分
3839
发表于 2021-9-29 19:41:03 | 显示全部楼层
啥玩应呀
回复 支持 反对

使用道具 举报

2

主题

1625

帖子

4461

积分

4K家园VIP

Rank: 9Rank: 9Rank: 9

积分
4461
发表于 2021-9-30 09:21:33 | 显示全部楼层
围观 围观 沙发在哪里!!!
回复 支持 反对

使用道具 举报

57

主题

1483

帖子

4305

积分

4K家园VIP

Rank: 9Rank: 9Rank: 9

积分
4305
发表于 2021-9-30 13:04:57 | 显示全部楼层
不错 支持一个了
回复 支持 反对

使用道具 举报

0

主题

5

帖子

28

积分

新手上路

Rank: 1

积分
28
发表于 6 天前 | 显示全部楼层
THIS IS VERY GOOOOOOOOOOOOOOOOOOOOOOOOOOD
回复 支持 反对

使用道具 举报

您需要登录后才可以回帖 登录 | 立即注册

本版积分规则

精彩图文
Archiver|手机版|TAG|Sitemap|新帖|专题|联系我们:邮箱: 4kjia.com@gmail.com   

4k家园   ©2019