[国家地理] [4K 国家地理] 委内瑞拉丛林最高的瀑布 (2021) [2160P/MKV/415MB]

[复制链接]

2566

主题

2890

帖子

2万

积分

超级版主

Rank: 8Rank: 8

积分
24032
 楼主| 发表于 2021-9-27 11:20:16 | 显示全部楼层 |阅读模式

委内瑞拉(415MB)(2021) WEBRip 2160p.mkv_20210926_221222.038.jpg 委内瑞拉(415MB)(2021) WEBRip 2160p.mkv_20210926_221230.311.jpg 委内瑞拉(415MB)(2021) WEBRip 2160p.mkv_20210926_221248.255.jpg 委内瑞拉(415MB)(2021) WEBRip 2160p.mkv_20210926_221257.302.jpg 委内瑞拉(415MB)(2021) WEBRip 2160p.mkv_20210926_221320.391.jpg 委内瑞拉(415MB)(2021) WEBRip 2160p.mkv_20210926_221354.039.jpg

关于信息
标题:委内瑞拉
发行: 2021
国家:委内瑞拉
时长: 00 : 03 : 18
类型: 种
导演:埃利斯面包车贾森

关于电影:

       我刚刚从两个星期的探险队返回通过委内瑞拉丛林最高的瀑布在世界上,天使瀑布(979 m)。多年来,我一直将这个美丽的国家列入我的愿望清单。我和我的朋友们乘船、徒步、直升机和无人机在丛林中探索了几天,向您展示一些独特的东西。现在系好您的安全带,享受世界上最高的瀑布的下降。

General
Complete name                  : E:\4K@电影 4K@MV\99999\委内瑞拉丛林最高的瀑布(415MB)(2021) WEBRip 2160p.mkv
Format                         : Matroska
Format version                 : Version 4
File size                      : 416 MiB
Duration                       : 3 min 18 s
Overall bit rate               : 17.6 Mb/s
Encoded date                   : UTC 2021-09-16 18:06:30
Writing application            : mkvmerge v61.0.0 ('So') 64-bit
Writing library                : libebml v1.4.2 + libmatroska v1.6.4 / Lavf58.29.100

Video
ID                             : 1
Format                         : VP9
Codec ID                       : V_VP9
Duration                       : 3 min 18 s
Bit rate                       : 17.4 Mb/s
Width                          : 3 840 pixels
Height                         : 2 160 pixels
Display aspect ratio           : 16:9
Frame rate mode                : Constant
Frame rate                     : 29.970 FPS
Color space                    : YUV
Bits/(Pixel*Frame)             : 0.070
Stream size                    : 413 MiB (99%)
Default                        : Yes
Forced                         : No
Color range                    : Limited
Color primaries                : BT.709
Transfer characteristics       : BT.709
Matrix coefficients            : BT.709

Audio
ID                             : 2
Format                         : AAC LC
Format/Info                    : Advanced Audio Codec Low Complexity
Codec ID                       : A_AAC-2
Duration                       : 3 min 18 s
Bit rate                       : 128 kb/s
Channel(s)                     : 2 channels
Channel layout                 : L R
Sampling rate                  : 44.1 kHz
Frame rate                     : 43.066 FPS (1024 SPF)
Compression mode               : Lossy
Stream size                    : 3.03 MiB (1%)
Default                        : Yes
Forced                         : No
下载地址:

****此区域为收费内容****    需支付 15 金币后可查看立即购买







上一篇:[4K 国家地理] 布列塔尼北海岸 (2021) [2160P/MKV/308MB]
下一篇:[4K 国家地理] 意大利 (2021) [2160P/MKV/267MB]
回复

使用道具 举报

0

主题

1312

帖子

3786

积分

4K家园VIP

Rank: 9Rank: 9Rank: 9

积分
3786
发表于 2021-9-27 11:20:22 | 显示全部楼层
4K电影下个试试
回复 支持 反对

使用道具 举报

0

主题

2

帖子

19

积分

新手上路

Rank: 1

积分
19
发表于 2021-9-27 16:47:31 | 显示全部楼层
谢谢楼主分享
回复 支持 反对

使用道具 举报

2

主题

1578

帖子

4334

积分

4K家园VIP

Rank: 9Rank: 9Rank: 9

积分
4334
发表于 2021-9-27 22:24:10 | 显示全部楼层
这么强,支持楼主,佩服
回复 支持 反对

使用道具 举报

1

主题

1267

帖子

3815

积分

4K家园VIP

Rank: 9Rank: 9Rank: 9

积分
3815
发表于 2021-9-28 06:39:29 | 显示全部楼层
楼主呀,,,您太有才了。。。
回复 支持 反对

使用道具 举报

44

主题

1413

帖子

4085

积分

4K家园VIP

Rank: 9Rank: 9Rank: 9

积分
4085
发表于 2021-9-28 11:41:09 | 显示全部楼层
回复 支持 反对

使用道具 举报

0

主题

1521

帖子

4163

积分

4K家园VIP

Rank: 9Rank: 9Rank: 9

积分
4163
发表于 2021-9-28 12:13:00 | 显示全部楼层
这么强,支持楼主,佩服
回复 支持 反对

使用道具 举报

0

主题

4

帖子

25

积分

新手上路

Rank: 1

积分
25
发表于 2021-9-28 14:49:11 | 显示全部楼层
vb .........
回复

使用道具 举报

您需要登录后才可以回帖 登录 | 立即注册

本版积分规则

精彩图文
Archiver|手机版|TAG|Sitemap|新帖|专题|联系我们:邮箱: 4kjia.com@gmail.com   

4k家园   ©2019