[4K电影] 夜读惊魂(内封中字) /Nightbooks (2021) 4K高清版本下载/12.06GB

[复制链接]

948

主题

1009

帖子

8533

积分

超级版主

Rank: 8Rank: 8

积分
8533
 楼主| 发表于 2021-9-27 10:17:06 | 显示全部楼层 |阅读模式
本帖最后由 最爱4K哟 于 2021-9-27 10:18 编辑

QQ图片20210927095935_副本.png

◎译  名 夜读惊魂/恐怖睡前故事(港)
◎片  名 Nightbooks
◎年  代 2021
◎产  地 美国
◎类  别 悬疑 / 恐怖 / 奇幻
◎语  言 英语
◎上映日期 2021-09-15(美国)
◎豆瓣评分 5.7/10 from 490 users
◎豆瓣链接 https://movie.douban.com/subject/35288672/
◎片  长 103分钟
◎导  演 大卫·雅洛维斯基 David Yarovesky
◎编  剧 米琪·多特里 Mikki Daughtry / 托拜厄斯·伊康尼斯 Tobias Iaconis
◎主  演 克里斯滕·里特 Krysten Ritter
      温斯洛·费格雷 Winslow Fegley
      莉娅·朱厄特 Lidya Jewett
      奥德丽·瓦西莱夫斯基 Audrey Wasilewski
      斯蒂芬·R·哈特 Stephen R. Hart
      杰森·帕特里克 Jason Patric
      科里·费尔德曼 Corey Feldman
      黛安·韦斯特 Dianne Wiest
      爱德华·赫曼 Edward Herrmann
      杰米·格尔兹 Jami Gertz
      Jill Frappier Jill Frappier
      科里·海姆 Corey Haim



◎简  介

  男孩亚历克斯(温斯洛·费格雷饰)是一位恐怖故事迷,他被邪恶的女巫(克里斯滕·里特饰)囚禁在魔法公寓里,要想活下去,他必须每晚讲一个恐怖故事。他与同样被囚禁在此处的亚丝敏(莉娅·朱厄特饰)联手,寻找逃脱的方法。

Video
ID : 1
Format : HEVC
Format/Info : High Efficiency Video Coding
Format profile : Main 10@L5.1@High
HDR format : Dolby Vision, Version 1.0, dvhe.08.06, BL+RPU / SMPTE ST 2086, HDR10 compatible
Codec ID : V_MPEGH/ISO/HEVC
Duration : 1 h 40 min
Bit rate : 16.4 Mb/s
Width : 3 840 pixels
Height : 1 600 pixels
Display aspect ratio : 2.40:1
Frame rate mode : Constant
Frame rate : 23.976 (24000/1001) FPS
Color space : YUV
Chroma subsampling : 4:2:0 (Type 2)
Bit depth : 10 bits
Bits/(Pixel*Frame) : 0.111
Stream size : 11.5 GiB (95%)
Writing library : x265 3.3+31-g431a22e82:[Windows][GCC 11.0.0][64 bit] 10bit
Encoding settings : cpuid=1111039 / frame-threads=4 / numa-pools=28 / wpp / no-pmode / no-pme / no-psnr / no-ssim / log-level=2 / input-csp=1 / input-res=3840x1600 / interlace=0 / total-frames=136429 / level-idc=51 / high-tier=1 / uhd-bd=0 / ref=4 / no-allow-non-conformance / repeat-headers / annexb / aud / hrd / info / hash=0 / no-temporal-layers / open-gop / min-keyint=23 / keyint=250 / gop-lookahead=0 / bframes=4 / b-adapt=2 / b-pyramid / bframe-bias=0 / rc-lookahead=25 / lookahead-slices=4 / scenecut=40 / hist-scenecut=0 / radl=0 / no-splice / no-intra-refresh / ctu=64 / min-cu-size=8 / rect / no-amp / max-tu-size=32 / tu-inter-depth=1 / tu-intra-depth=1 / limit-tu=0 / rdoq-level=2 / dynamic-rd=0.00 / no-ssim-rd / signhide / no-tskip / nr-intra=0 / nr-inter=0 / no-constrained-intra / strong-intra-smoothing / max-merge=3 / limit-refs=3 / limit-modes / me=3 / subme=3 / merange=57 / temporal-mvp / no-frame-dup / no-hme / weightp / no-weightb / no-analyze-src-pics / deblock=-2:-2 / no-sao / no-sao-non-deblock / rd=4 / selective-sao=0 / no-early-skip / rskip / no-fast-intra / no-tskip-fast / no-cu-lossless / no-b-intra / no-splitrd-skip / rdpenalty=0 / psy-rd=2.00 / psy-rdoq=1.00 / no-rd-refine / no-lossless / cbqpoffs=0 / crqpoffs=0 / rc=crf / crf=15.0 / qcomp=0.60 / qpstep=4 / stats-write=0 / stats-read=0 / vbv-maxrate=98000 / vbv-bufsize=98000 / vbv-init=0.9 / crf-max=0.0 / crf-min=0.0 / ipratio=1.40 / pbratio=1.30 / aq-mode=1 / aq-strength=1.00 / cutree / zone-count=0 / no-strict-cbr / qg-size=32 / no-rc-grain / qpmax=69 / qpmin=0 / no-const-vbv / sar=0 / overscan=0 / videoformat=5 / range=0 / colorprim=9 / transfer=16 / colormatrix=9 / chromaloc=1 / chromaloc-top=2 / chromaloc-bottom=2 / display-window=0 / master-display=G(13250,34500)B(7500,3000)R(34000,16000)WP(15635,16450)L(40000000,50) / cll=10000,2980 / min-luma=0 / max-luma=1023 / log2-max-poc-lsb=8 / vui-timing-info / vui-hrd-info / slices=1 / no-opt-qp-pps / no-opt-ref-list-length-pps / no-multi-pass-opt-rps / scenecut-bias=0.05 / hist-threshold=0.01 / no-opt-cu-delta-qp / no-aq-motion / hdr10 / hdr10-opt / no-dhdr10-opt / no-idr-recovery-sei / analysis-reuse-level=0 / analysis-save-reuse-level=0 / analysis-load-reuse-level=0 / scale-factor=0 / refine-intra=0 / refine-inter=0 / refine-mv=1 / refine-ctu-distortion=0 / no-limit-sao / ctu-info=0 / no-lowpass-dct / refine-analysis-type=0 / copy-pic=1 / max-ausize-factor=1.0 / no-dynamic-refine / no-single-sei / no-hevc-aq / no-svt / no-field / qp-adaptation-range=1.00 / no-scenecut-aware-qpconformance-window-offsets / right=0 / bottom=0 / decoder-max-rate=0
Default : Yes
Forced : No
Color range : Limited
Color primaries : BT.2020
Transfer characteristics : PQ
Matrix coefficients : BT.2020 non-constant
Mastering display color primaries : Display P3
Mastering display luminance : min: 0.0050 cd/m2, max: 4000 cd/m2
Maximum Content Light Level : 10000 cd/m2
Maximum Frame-Average Light Level : 2980 cd/m2

Audio
ID : 2
Format : E-AC-3 JOC
Format/Info : Enhanced AC-3 with Joint Object Coding
Commercial name : Dolby Digital Plus with Dolby Atmos
Codec ID : A_EAC3
Duration : 1 h 43 min
Bit rate mode : Constant
Bit rate : 768 kb/s
Channel(s) : 6 channels
Channel layout : L R C LFE Ls Rs
Sampling rate : 48.0 kHz
Frame rate : 31.250 FPS (1536 SPF)
Compression mode : Lossy
Stream size : 567 MiB (5%)
Title : English
Language : English
Service kind : Complete Main
Default : No
Forced : No
Complexity index : 16
Number of dynamic objects : 15
Bed channel count : 1 channel
Bed channel configuration : LFE

Text #1
ID : 3
Format : UTF-8
Codec ID : S_TEXT/UTF8
Codec ID/Info : UTF-8 Plain Text
Duration : 1 h 40 min
Bit rate : 76 b/s
Count of elements : 1129
Stream size : 55.7 KiB (0%)
Title : Arabic
Language : Arabic
Default : No
Forced : No

Text #2
ID : 4
Format : UTF-8
Codec ID : S_TEXT/UTF8
Codec ID/Info : UTF-8 Plain Text
Duration : 1 h 40 min
Bit rate : 43 b/s
Count of elements : 1095
Stream size : 31.7 KiB (0%)
Title : Chinese Simplified
Language : Chinese
Default : No
Forced : No


Text #3
ID : 5
Format : UTF-8
Codec ID : S_TEXT/UTF8
Codec ID/Info : UTF-8 Plain Text
Duration : 1 h 40 min
Bit rate : 40 b/s
Count of elements : 1091
Stream size : 30.0 KiB (0%)
Title : Chinese Traditional
Language : Chinese
Default : No
Forced : No

Text #4
ID : 6
Format : UTF-8
Codec ID : S_TEXT/UTF8
Codec ID/Info : UTF-8 Plain Text
Duration : 1 h 40 min
Bit rate : 36 b/s
Count of elements : 1051
Stream size : 26.8 KiB (0%)
Title : Czech
Language : Czech
Default : No
Forced : No

下载链接

游客,如果您要查看本帖隐藏内容请回复






上一篇:写给洛杉矶的情书(内嵌中字)(2021)4K高清版本下载/7.79GB
下一篇:2021 纪录片《打破边界:我们星球的科学》4K高清下载/7.56GB
回复

使用道具 举报

3

主题

1353

帖子

3885

积分

4K家园VIP

Rank: 9Rank: 9Rank: 9

积分
3885
发表于 2021-9-27 10:17:11 | 显示全部楼层
众里寻他千百度,蓦然回首在这里!
回复 支持 反对

使用道具 举报

47

主题

1473

帖子

4261

积分

4K家园VIP

Rank: 9Rank: 9Rank: 9

积分
4261
发表于 2021-9-27 11:12:43 | 显示全部楼层
确实不错,顶先
回复 支持 反对

使用道具 举报

0

主题

1660

帖子

4492

积分

4K家园VIP

Rank: 9Rank: 9Rank: 9

积分
4492
发表于 2021-9-27 12:27:32 | 显示全部楼层
前排支持下了哦~
回复 支持 反对

使用道具 举报

2

主题

1297

帖子

3911

积分

4K家园VIP

Rank: 9Rank: 9Rank: 9

积分
3911
发表于 2021-9-27 16:22:38 | 显示全部楼层
有4K版卡,下个看下
回复 支持 反对

使用道具 举报

30

主题

1176

帖子

3506

积分

4K家园VIP

Rank: 9Rank: 9Rank: 9

积分
3506
发表于 2021-9-27 18:33:20 | 显示全部楼层
元芳你怎么看?
回复 支持 反对

使用道具 举报

0

主题

1

帖子

21

积分

4K家园VIP

Rank: 9Rank: 9Rank: 9

积分
21
发表于 2021-9-28 08:37:09 | 显示全部楼层
有 4K必须支持,赞!
回复 支持 反对

使用道具 举报

0

主题

2

帖子

13

积分

新手上路

Rank: 1

积分
13
发表于 2021-9-28 11:46:02 | 显示全部楼层
不会都是要钱的吧
回复 支持 反对

使用道具 举报

0

主题

2

帖子

9

积分

新手上路

Rank: 1

积分
9
发表于 2021-9-29 12:03:19 | 显示全部楼层

众里寻他千百度,蓦然回首在这里
回复 支持 反对

使用道具 举报

您需要登录后才可以回帖 登录 | 立即注册

本版积分规则

精彩图文
Archiver|手机版|TAG|Sitemap|新帖|专题|联系我们:邮箱: 4kjia.com@gmail.com   

4k家园   ©2019