[4K电影] The.One.Youre.With (2021) 4K高清版本下载/13.00GB

[复制链接]

8

主题

1128

帖子

3350

积分

4K家园VIP

Rank: 9Rank: 9Rank: 9

积分
3350
 楼主| 发表于 2021-9-28 13:31:00 | 显示全部楼层 |阅读模式
QQ图片20210928131206_副本.png

◎片  名 The.One.Youre.With
◎年  代 2021
◎产  地 美国
◎类  别 喜剧 / 爱情
◎语  言 英语
◎上映日期 2021-09-27(美国网络)
◎IMDb评分  0/10 from 0 users
◎IMDb链接  https://www.imdb.com/title/tt12979770/
◎片  长 68 分钟
◎导  演 C.贝利沃纳
◎编  剧 C.贝利沃纳
◎主  演 科尔顿·邓恩
                   科科·马歇尔
                   C.贝利沃纳
                   李艾迪
                   拜伦布朗
                   考特尼·帕奇曼
                   尼古拉斯·卢瑟福
                   桑杰·拉奥
                   乔恩·迈克尔·辛普森
                   塔吉前辈
                   布雷迪·伯利森·约翰逊
                   艾米丽·希奥特
                   Luxy Banner
                   克里斯蒂安·沃尔夫
                   迈克·阿克尔


◎简  介


         一个逃离过去的女孩与一个坚持自己的方式的男人进行了一夜情,结果第二天早上醒来发现他们因全国紧急状态而被迫住在一起。
Video
ID : 1
Format : HEVC
Format/Info : High Efficiency Video Coding
Format profile : Main 10@L5@High
Codec ID : V_MPEGH/ISO/HEVC
Duration : 1 h 28 min
Bit rate : 20.7 Mb/s
Width : 3 550 pixels
Height : 2 160 pixels
Display aspect ratio : 16:10
Frame rate mode : Constant
Frame rate : 23.976 FPS
Color space : YUV
Chroma subsampling : 4:2:0
Bit depth : 10 bits
Bits/(Pixel*Frame) : 0.113
Stream size : 12.8 GiB (98%)
Language : English
Default : Yes
Forced : No
Color range : Limited
Color primaries : BT.709
Transfer characteristics : BT.709
Matrix coefficients : BT.709

Audio
ID : 2
Format : AC-3
Format/Info : Audio Coding 3
Commercial name : Dolby Digital
Codec ID : A_AC3
Duration : 1 h 28 min
Bit rate mode : Constant
Bit rate : 384 kb/s
Channel(s) : 6 channels
Channel layout : L R C LFE Ls Rs
Sampling rate : 48.0 kHz
Frame rate : 31.250 FPS (1536 SPF)
Compression mode : Lossy
Stream size : 242 MiB (2%)
Title : English
Language : English
Service kind : Complete Main
Default : No
Forced : No

Text
ID : 3
Format : UTF-8
Codec ID : S_TEXT/UTF8
Codec ID/Info : UTF-8 Plain Text
Duration : 1 h 27 min
Bit rate : 78 b/s
Count of elements : 1885
Stream size : 50.7 KiB (0%)
Language : English
Default : Yes

下载地址


The.One.Youre.With.2021.2160p.WEB-DL.x265.10bit.SDR.DD5.1-NOGRP.torrent (16.91 KB, 售价: 9 金币)

上一篇:魔爪入室(内封中字) / Intrusion (2021) 4K高清版本下载/14.13GB
下一篇:失控玩家 / Free Guy (2021) 4K高清版本下载/16.02GB
回复

使用道具 举报

48

主题

1469

帖子

4211

积分

4K家园VIP

Rank: 9Rank: 9Rank: 9

积分
4211
发表于 2021-9-28 13:31:05 | 显示全部楼层
多发些资源啊
回复 支持 反对

使用道具 举报

49

主题

1473

帖子

4249

积分

4K家园VIP

Rank: 9Rank: 9Rank: 9

积分
4249
发表于 2021-9-29 07:05:19 | 显示全部楼层
谢谢楼主
回复 支持 反对

使用道具 举报

14

主题

1177

帖子

3521

积分

4K家园VIP

Rank: 9Rank: 9Rank: 9

积分
3521
发表于 2021-9-29 14:21:53 | 显示全部楼层
高手云集 果断围观
回复 支持 反对

使用道具 举报

46

主题

1389

帖子

3995

积分

4K家园VIP

Rank: 9Rank: 9Rank: 9

积分
3995
发表于 2021-9-29 17:40:38 | 显示全部楼层
LZ敢整点更有创意的不?兄弟们等着围观捏~
回复 支持 反对

使用道具 举报

2

主题

1256

帖子

3786

积分

4K家园VIP

Rank: 9Rank: 9Rank: 9

积分
3786
发表于 2021-9-29 20:01:31 | 显示全部楼层
感谢楼主的分享,还是阔以滴
回复 支持 反对

使用道具 举报

您需要登录后才可以回帖 登录 | 立即注册

本版积分规则

精彩图文
Archiver|手机版|TAG|Sitemap|新帖|专题|联系我们:邮箱: 4kjia.com@gmail.com   

4k家园   ©2019