[4KMV] 2021 SUNMI - You can't sit with us (Bugs) [2160P /MP4/2.04GB]

[复制链接]

2567

主题

2891

帖子

2万

积分

超级版主

Rank: 8Rank: 8

积分
24049
 楼主| 发表于 2021-9-28 21:26:39 | 显示全部楼层 |阅读模式
本帖最后由 叽里呱啦 于 2021-10-14 14:21 编辑

SUNMI - You can't sit with us (Bugs).mp4_20210928_211136.858.jpg SUNMI - You can't sit with us (Bugs).mp4_20210928_211156.881.jpg SUNMI - You can't sit with us (Bugs).mp4_20210928_211214.386.jpg SUNMI - You can't sit with us (Bugs).mp4_20210928_211254.865.jpg SUNMI - You can't sit with us (Bugs).mp4_20210928_211309.489.jpg SUNMI - You can't sit with us (Bugs).mp4_20210928_211348.617.jpg
(本次图片已经压缩50%)

General
Complete name                  : E:\4K@MV\SUNMI - You can't sit with us (Bugs).mp4
Format                         : MPEG-4
Format profile                 : Base Media / Version 2
Codec ID                       : mp42 (mp42/mp41)
File size                      : 2.04 GiB
Duration                       : 4 min 48 s
Overall bit rate mode          : Variable
Overall bit rate               : 60.9 Mb/s
Encoded date                   : UTC 2021-08-03 07:45:12
Tagged date                    : UTC 2021-08-03 07:45:26
TIM                            : 00:00:00:00
TSC                            : 24000
TSZ                            : 1001

Video
ID                             : 1
Format                         : AVC
Format/Info                    : Advanced Video Codec
Format profile                 : High@L5.2
Format settings                : CABAC / 1 Ref Frames
Format settings, CABAC         : Yes
Format settings, Reference fra : 1 frame
Format settings, GOP           : M=1, N=30
Codec ID                       : avc1
Codec ID/Info                  : Advanced Video Coding
Duration                       : 4 min 48 s
Bit rate                       : 60.5 Mb/s
Width                          : 3 840 pixels
Height                         : 2 160 pixels
Display aspect ratio           : 16:9
Frame rate mode                : Constant
Frame rate                     : 23.976 (24000/1001) FPS
Color space                    : YUV
Chroma subsampling             : 4:2:0
Bit depth                      : 8 bits
Scan type                      : Progressive
Bits/(Pixel*Frame)             : 0.304
Stream size                    : 2.03 GiB (99%)
Language                       : English
Encoded date                   : UTC 2021-08-03 07:45:12
Tagged date                    : UTC 2021-08-03 07:45:12
Codec configuration box        : avcC

Audio
ID                             : 2
Format                         : AAC LC
Format/Info                    : Advanced Audio Codec Low Complexity
Codec ID                       : mp4a-40-2
Duration                       : 4 min 48 s
Source duration                : 4 min 48 s
Bit rate mode                  : Variable
Bit rate                       : 317 kb/s
Maximum bit rate               : 411 kb/s
Channel(s)                     : 2 channels
Channel layout                 : L R
Sampling rate                  : 48.0 kHz
Frame rate                     : 46.875 FPS (1024 SPF)
Compression mode               : Lossy
Stream size                    : 10.9 MiB (1%)
Source stream size             : 10.9 MiB (1%)
Language                       : English
Encoded date                   : UTC 2021-08-03 07:45:12
Tagged date                    : UTC 2021-08-03 07:45:12
提供更多【4K、8K、16K(25-120fps)】高品质MV、演示片等珍藏版视频,需要的联系本楼主
网盘下载失效告知:链接: https://pan.baidu.com/s/11w9ivv-c2ee21L33OiGIqw 提取码:
****此区域为收费内容****    需支付 25 金币后可查看立即购买









上一篇:[4K MV] 2021 KWON EUN BI - Door 4k [2160P/MP4/390MB]
下一篇:[4KMV] 2017 HyunA-嘴唇和臀部(收藏版) [2160P /MP4/1.28GB]
回复

使用道具 举报

0

主题

1293

帖子

3889

积分

4K家园VIP

Rank: 9Rank: 9Rank: 9

积分
3889
发表于 2021-9-28 21:26:48 | 显示全部楼层
回复 支持 反对

使用道具 举报

49

主题

1416

帖子

4074

积分

4K家园VIP

Rank: 9Rank: 9Rank: 9

积分
4074
发表于 2021-9-28 22:36:29 | 显示全部楼层
大人,此事必有蹊跷!
回复 支持 反对

使用道具 举报

1

主题

1319

帖子

3811

积分

4K家园VIP

Rank: 9Rank: 9Rank: 9

积分
3811
发表于 2021-9-29 01:19:58 | 显示全部楼层
占位编辑
回复 支持 反对

使用道具 举报

1

主题

1398

帖子

4026

积分

4K家园VIP

Rank: 9Rank: 9Rank: 9

积分
4026
发表于 2021-9-29 01:33:28 | 显示全部楼层
楼主这资源不错,我收藏了
回复 支持 反对

使用道具 举报

1

主题

1328

帖子

4002

积分

4K家园VIP

Rank: 9Rank: 9Rank: 9

积分
4002
发表于 2021-9-29 03:27:32 | 显示全部楼层
楼猪辛苦了,支持一下分享好资源
回复 支持 反对

使用道具 举报

0

主题

3

帖子

106

积分

4K家园VIP

Rank: 9Rank: 9Rank: 9

积分
106
发表于 2021-9-29 11:02:20 | 显示全部楼层
无法播放,大哥
回复 支持 反对

使用道具 举报

2567

主题

2891

帖子

2万

积分

超级版主

Rank: 8Rank: 8

积分
24049
 楼主| 发表于 2021-9-29 12:18:44 | 显示全部楼层
billxun 发表于 2021-9-29 11:02
无法播放,大哥

b把后缀改为MP4即可
回复 支持 反对

使用道具 举报

0

主题

4

帖子

1223

积分

4K家园VIP

Rank: 9Rank: 9Rank: 9

积分
1223
发表于 2021-10-1 06:35:41 | 显示全部楼层
大哥 失效了 没了
回复 支持 反对

使用道具 举报

0

主题

11

帖子

54

积分

新手上路

Rank: 1

积分
54
发表于 2021-10-5 19:20:48 | 显示全部楼层
这些必须得那个ii个i大哥i
回复 支持 反对

使用道具 举报

您需要登录后才可以回帖 登录 | 立即注册

本版积分规则

精彩图文
Archiver|手机版|TAG|Sitemap|新帖|专题|联系我们:邮箱: 4kjia.com@gmail.com   

4k家园   ©2019